<?xml version="1.0" standalone="no"?>
<!DOCTYPE svg PUBLIC "-//W3C//DTD SVG 1.1//EN" "http://www.w3.org/Graphics/SVG/1.1/DTD/svg11.dtd" >
<svg xmlns="http://www.w3.org/2000/svg">
<metadata>
<json>
<![CDATA[
{
	"fontFamily": "rpg-awesome",
	"majorVersion": 1,
	"minorVersion": 0,
	"fontURL": "https://github.com/nagoshiashumari/Rpg-Awesome/",
	"license": "MIT",
	"version": "Version 1.0",
	"fontId": "rpg-awesome",
	"psName": "rpg-awesome",
	"subFamily": "Regular",
	"fullName": "rpg-awesome",
	"description": "Font generated by IcoMoon."
}
]]>
</json>
</metadata>
<defs>
<font id="rpg-awesome" horiz-adv-x="1024">
<font-face units-per-em="1024" ascent="960" descent="-64" />
<missing-glyph horiz-adv-x="1024" />
<glyph unicode="&#x20;" horiz-adv-x="512" d="" />
<glyph unicode="&#xe900;" glyph-name="acid" data-tags="acid" d="M391.998 568.007c29.992 0 60.009-29.992 119.994-29.992s90.002 29.992 119.994 29.992c90.002 0 29.992-60.009 0-90.002 0-299.997 240.013-450.008 240.013-509.992h-719.987c0 60.009 240.013 209.995 240.013 509.992-30.017 29.992-90.027 90.002-0.025 90.002zM542.009 597.999c0-16.565-13.427-29.992-29.992-29.992s-29.992 13.427-29.992 29.992 13.427 29.992 29.992 29.992c16.54 0.025 29.992-13.427 29.992-29.992zM572.001 868.003c0-33.129-26.855-60.009-60.009-60.009-33.129 0-60.009 26.855-60.009 60.009 0 33.129 26.855 60.009 60.009 60.009 33.155-0.025 60.009-26.88 60.009-60.009zM481.999 717.992c0-33.129-26.855-60.009-60.009-60.009s-60.009 26.855-60.009 60.009c0 33.129 26.855 60.009 60.009 60.009s60.009-26.855 60.009-60.009zM601.993 688c0-16.565-13.427-29.992-29.992-29.992s-29.992 13.427-29.992 29.992 13.427 29.992 29.992 29.992 29.992-13.427 29.992-29.992z" />
<glyph unicode="&#xe901;" glyph-name="acorn" data-tags="acorn" d="M731.604 806.754c0.015-0.010 0.032-0.020 0.047-0.030 54.711 24.345 118.046 40.713 227.398 14.508-51.275 157.925-189.5 108.798-276.719 14.795 0.040-0.022 0.080-0.045 0.12-0.067-204.274 111.591-346.022 63.109-463.17-63.809 26.262-3.795 51.957-8.57 77.126-14.256-43.502-22.536-82.541-59.566-114.172-114.29v-0.007c-84.476-146.153-123.47-396.036-48.968-530.594l128.531-92.68c175.498-37.888 424.987 98.735 520.449 263.906 32.586 56.385 46.417 110.62 45.23 161.393 16.372-16.868 32.459-34.23 48.267-52.072 63.747 160.566 41.082 293.818-144.138 413.202zM813.124 460.203c-9.137 9.154-18.365 18.151-27.686 26.99 9.321-8.837 18.549-17.834 27.686-26.99zM697.827 827.349c3.1-1.787 6.154-3.58 9.174-5.374-3.024 1.794-6.074 3.587-9.174 5.374-2.718 1.567-5.417 3.089-8.113 4.6 2.693-1.503 5.396-3.032 8.113-4.6zM723.687 811.787c-0.204 0.127-0.409 0.256-0.613 0.383 0.202-0.127 0.409-0.254 0.613-0.383zM715.555 816.822c-0.875 0.533-1.764 1.066-2.646 1.599 0.88-0.533 1.774-1.066 2.646-1.599zM296.437 757.889c12.934-2.923 25.725-6.094 38.381-9.502-12.656 3.406-25.446 6.578-38.381 9.502zM482.127 695.526c-11.571 5.25-23.265 10.288-35.090 15.099 11.825-4.813 23.52-9.849 35.090-15.099zM446.958 710.657c-5.887 2.394-11.807 4.731-17.757 7.016 5.95-2.284 11.87-4.621 17.757-7.016zM428.451 717.958c-11.855 4.539-23.838 8.855-35.95 12.948 12.113-4.091 24.095-8.409 35.95-12.948zM391.761 731.157c-6.087 2.050-12.204 4.046-18.357 5.98 6.152-1.934 12.271-3.931 18.357-5.98zM373.279 737.177c-12.355 3.884-24.847 7.532-37.474 10.945 12.629-3.414 25.119-7.061 37.474-10.945zM696.385 564.257c4.951-3.887 9.879-7.818 14.779-11.794-4.901 3.976-9.827 7.906-14.779 11.794zM483.067 695.098c11.55-5.255 22.977-10.724 34.281-16.407-11.304 5.683-22.732 11.152-34.281 16.407zM517.482 678.624c5.618-2.825 11.202-5.705 16.76-8.633-5.558 2.928-11.142 5.808-16.76 8.633zM535.014 669.582c11.059-5.84 22-11.885 32.826-18.128-10.826 6.243-21.768 12.286-32.826 18.128zM568.604 651.016c5.421-3.132 10.815-6.313 16.18-9.543-5.366 3.231-10.76 6.411-16.18 9.543zM585.020 641.329c10.776-6.496 21.437-13.193 31.988-20.081-10.551 6.887-21.212 13.584-31.988 20.081zM617.976 620.615c10.552-6.904 20.995-13.999 31.325-21.285-10.33 7.285-20.772 14.381-31.325 21.285zM649.497 599.193c5.123-3.615 10.218-7.278 15.29-10.985-5.072 3.707-10.166 7.37-15.29 10.985zM665.615 587.6c10.105-7.402 20.104-14.984 30.003-22.742-9.899 7.758-19.899 15.34-30.003 22.742zM770.624 501.034c4.717-4.34 9.41-8.723 14.080-13.145-4.671 4.42-9.363 8.803-14.080 13.145zM711.5 552.189c9.856-8.002 19.61-16.18 29.265-24.526-9.655 8.347-19.408 16.526-29.265 24.526zM741.7 526.855c9.695-8.397 19.294-16.965 28.794-25.702-9.5 8.737-19.099 17.304-28.794 25.702zM813.709 459.618c4.589-4.602 9.154-9.241 13.698-13.922-4.544 4.681-9.111 9.32-13.698 13.922zM97.527-21.79c54.449 24.34 109.643 35.568 165.131 41.491l-129.554 93.418c1.5-46.71-15.18-91.051-35.578-134.909z" />
<glyph unicode="&#xe902;" glyph-name="alien-fire" data-tags="alien-fire" d="M717.268 789.015c128.306-124.674 105.851-220.382 21.564-297.396-37.126 200.311-188.73 132.413-219.118 425.11-30.388-292.697-181.991-224.796-219.118-425.11-84.285 77.015-106.735 172.722 21.567 297.394-284.435-162.492-182.038-371.408 26.597-542.738l0.003 0.020c-0.017 0.020-0.033 0.042-0.050 0.062 53.697-64.58 132.121-115.794 171-265.193 38.865 149.369 117.251 200.604 170.946 265.151l0.007-0.038c208.637 171.329 311.035 380.245 26.601 542.738zM296.669 465.959c0.022 0.179 0.043 0.361 0.065 0.54-0.022-0.18-0.043-0.361-0.065-0.54zM300.121 337.968c-0.057 0.227-0.112 0.458-0.167 0.687 0.055-0.227 0.11-0.459 0.167-0.687zM298.853 343.316c-0.065 0.292-0.134 0.581-0.199 0.875 0.065-0.294 0.132-0.583 0.199-0.875zM297.573 349.377c-0.065 0.334-0.129 0.672-0.194 1.007 0.065-0.336 0.129-0.673 0.194-1.007zM296.474 355.367c-0.032 0.185-0.065 0.368-0.097 0.555 0.032-0.185 0.065-0.368 0.097-0.555zM295.525 361.408c-0.057 0.394-0.112 0.788-0.169 1.184 0.055-0.396 0.112-0.792 0.169-1.184zM294.615 368.295c-0.002 0.012-0.003 0.025-0.003 0.038 0-0.012 0.002-0.025 0.003-0.038zM294 374.128c-0.040 0.414-0.080 0.827-0.117 1.243 0.037-0.416 0.077-0.829 0.117-1.243zM293.404 381.27c-0.020 0.277-0.035 0.56-0.053 0.837 0.017-0.277 0.033-0.56 0.053-0.837zM293.028 387.629c-0.018 0.388-0.040 0.77-0.058 1.159 0.018-0.388 0.040-0.772 0.058-1.159zM293.335 427.049c0.035 0.688 0.072 1.376 0.11 2.060-0.038-0.683-0.075-1.371-0.11-2.060zM294 438.069c0.012 0.165 0.025 0.326 0.037 0.491-0.012-0.164-0.025-0.326-0.037-0.491zM294.703 447.036c0.042 0.481 0.082 0.964 0.124 1.442-0.042-0.479-0.082-0.962-0.124-1.442zM295.664 457.173c0.010 0.095 0.022 0.189 0.032 0.284-0.010-0.095-0.022-0.189-0.032-0.284zM292.717 410.932c-0.010-0.498-0.020-0.996-0.028-1.492 0.008 0.496 0.018 0.994 0.028 1.492zM292.638 402.904c0-0.286 0.005-0.566 0.007-0.85 0 0.284-0.005 0.565-0.007 0.85zM292.752 394.971c-0.010 0.414-0.018 0.834-0.027 1.25 0.008-0.418 0.015-0.835 0.027-1.25zM345.334 250.487c0.127-0.157 0.254-0.316 0.383-0.473-0.129 0.157-0.256 0.314-0.383 0.473zM301.43 333.008c0.089-0.324 0.18-0.645 0.271-0.967-0.090 0.322-0.182 0.643-0.271 0.967zM303.112 327.223c0.010-0.032 0.018-0.062 0.028-0.094-0.010 0.030-0.020 0.062-0.028 0.094zM304.689 322.319c0.104-0.311 0.207-0.62 0.312-0.929-0.105 0.309-0.209 0.62-0.312 0.929zM306.642 316.726c0.037-0.102 0.075-0.2 0.114-0.302-0.037 0.1-0.075 0.2-0.114 0.302zM308.419 312.067c0.105-0.264 0.207-0.531 0.312-0.795-0.105 0.266-0.207 0.531-0.312 0.795zM310.561 306.84c0.089-0.207 0.179-0.413 0.267-0.618-0.087 0.205-0.179 0.411-0.267 0.618zM312.627 302.169c0.082-0.18 0.164-0.362 0.246-0.543-0.084 0.18-0.164 0.362-0.246 0.543zM314.894 297.365c0.12-0.247 0.244-0.494 0.366-0.742-0.122 0.247-0.246 0.494-0.366 0.742zM317.368 292.454c0.008-0.015 0.017-0.032 0.025-0.047-0.008 0.015-0.017 0.030-0.025 0.047zM319.635 288.229c0.132-0.239 0.264-0.478 0.396-0.717-0.132 0.239-0.264 0.478-0.396 0.717zM322.353 283.423c0.012-0.020 0.025-0.042 0.037-0.062-0.012 0.022-0.025 0.042-0.037 0.062zM324.765 279.396c0.125-0.205 0.251-0.413 0.378-0.618-0.127 0.205-0.252 0.413-0.378 0.618zM327.608 274.859c0.089-0.137 0.179-0.274 0.267-0.411-0.089 0.137-0.179 0.274-0.267 0.411zM330.299 270.769c0.090-0.134 0.179-0.267 0.269-0.401-0.090 0.134-0.179 0.267-0.269 0.401zM333.196 266.553c0.129-0.182 0.257-0.364 0.386-0.548-0.129 0.182-0.257 0.364-0.386 0.548zM339.109 258.443c0.139-0.184 0.279-0.368 0.419-0.553-0.14 0.185-0.279 0.369-0.419 0.553zM519.719 770.959c18.487-178.066 112.72-130.806 131.423-261.797 0.005-0.022 0.010-0.045 0.015-0.068-14.491 59.412-68.037 103.521-131.914 103.521-60.857 0-112.359-40.031-129.625-95.194 0 0.002 0.002 0.003 0.002 0.005 21.427 120.784 112.015 79.324 130.1 253.533zM383.594 483.1c-0.095-2.086-0.159-4.181-0.159-6.289 0-2.243 0.062-4.472 0.169-6.687-0.11 2.215-0.169 4.445-0.169 6.687 0 2.11 0.063 4.205 0.159 6.289zM389.197 515.982c-0.431-1.433-0.845-2.875-1.229-4.328 0.386 1.453 0.798 2.895 1.229 4.328zM387.404 509.42c-0.314-1.276-0.61-2.559-0.889-3.849 0.279 1.29 0.573 2.573 0.889 3.849zM386.061 503.436c-0.383-1.928-0.738-3.865-1.039-5.82 0.301 1.956 0.656 3.894 1.039 5.82zM384.907 496.764c-0.259-1.754-0.483-3.518-0.673-5.294 0.192 1.776 0.416 3.541 0.673 5.294zM384.043 489.478c-0.137-1.482-0.251-2.97-0.339-4.465 0.090 1.495 0.202 2.983 0.339 4.465zM385.916 450.997c0 0.003-0.002 0.007-0.002 0.012 12.056-62.664 67.15-110.007 133.329-110.007 69.664 0 127.041 52.465 134.866 120.029-3.361-109.708-98.042-104.522-134.39-244.195-35.2 135.275-125.123 134.669-133.803 234.162zM383.998 464.752c0.032-0.361 0.048-0.727 0.084-1.087-0.037 0.359-0.052 0.725-0.084 1.087zM652.659 502.127c0.15-0.792 0.289-1.589 0.426-2.385-0.135 0.797-0.277 1.594-0.426 2.385zM653.706 495.757c0.177-1.253 0.337-2.512 0.479-3.777-0.14 1.266-0.304 2.524-0.479 3.777zM654.904 471.011c0.080 1.926 0.147 3.855 0.147 5.8 0 2.068-0.065 4.121-0.155 6.166 0.094-2.045 0.155-4.098 0.155-6.166 0-1.946-0.060-3.875-0.147-5.8zM654.483 464.673c0.127 1.432 0.246 2.867 0.327 4.311-0.087-1.443-0.197-2.88-0.327-4.311zM654.413 489.865c0.177-1.822 0.316-3.655 0.418-5.499-0.1 1.844-0.244 3.677-0.418 5.499zM742.752 466.009c-0.018 0.154-0.037 0.309-0.057 0.463 0.020-0.154 0.038-0.311 0.057-0.463zM746.083 427.233c-0.030 0.575-0.060 1.149-0.092 1.721 0.032-0.571 0.062-1.146 0.092-1.721zM745.422 438.161c-0.003 0.037-0.005 0.074-0.008 0.11 0.003-0.037 0.007-0.074 0.008-0.11zM744.714 447.17c-0.035 0.406-0.068 0.814-0.105 1.218 0.037-0.404 0.070-0.812 0.105-1.218zM743.758 457.223c-0.003 0.038-0.008 0.075-0.012 0.114 0.003-0.038 0.008-0.075 0.012-0.114zM746.453 388.683c-0.013-0.284-0.028-0.566-0.042-0.849 0.013 0.284 0.028 0.565 0.042 0.849zM746.063 381.864c-0.012-0.162-0.020-0.327-0.032-0.489 0.012 0.162 0.022 0.326 0.032 0.489zM745.534 375.248c-0.028-0.317-0.060-0.633-0.090-0.95 0.030 0.317 0.062 0.633 0.090 0.95zM744.050 362.448c-0.042-0.301-0.085-0.601-0.127-0.9 0.042 0.301 0.085 0.601 0.127 0.9zM743.035 355.833c-0.010-0.057-0.020-0.114-0.030-0.172 0.008 0.058 0.020 0.115 0.030 0.172zM742.012 350.207c-0.045-0.234-0.089-0.469-0.135-0.703 0.047 0.232 0.090 0.468 0.135 0.703zM740.75 344.093c-0.040-0.185-0.084-0.368-0.125-0.551 0.042 0.184 0.084 0.366 0.125 0.551zM739.417 338.422c-0.028-0.112-0.055-0.227-0.084-0.339 0.028 0.112 0.055 0.226 0.084 0.339zM714.508 279.159c-0.037-0.060-0.074-0.12-0.11-0.18 0.037 0.060 0.074 0.12 0.11 0.18zM737.963 332.894c-0.062-0.224-0.125-0.446-0.187-0.668 0.062 0.222 0.125 0.444 0.187 0.668zM734.687 322.178c-0.070-0.21-0.14-0.419-0.212-0.63 0.072 0.21 0.142 0.421 0.212 0.63zM730.931 311.883c-0.060-0.154-0.12-0.309-0.182-0.463 0.060 0.154 0.12 0.309 0.182 0.463zM728.816 306.736c-0.037-0.084-0.074-0.167-0.109-0.252 0.035 0.084 0.072 0.167 0.109 0.252zM726.674 301.902c-0.020-0.043-0.038-0.087-0.058-0.13 0.018 0.043 0.038 0.087 0.058 0.13zM724.457 297.228c-0.060-0.124-0.122-0.246-0.182-0.369 0.062 0.124 0.122 0.246 0.182 0.369zM719.693 288.064c-0.063-0.117-0.129-0.232-0.192-0.349 0.063 0.117 0.127 0.234 0.192 0.349zM746.785 402.324c0 0.162 0.003 0.321 0.003 0.483 0-0.162-0.003-0.321-0.003-0.483zM746.68 395.088c0.008 0.312 0.013 0.628 0.020 0.94-0.007-0.312-0.013-0.628-0.020-0.94zM746.715 410.774c0.008-0.399 0.017-0.798 0.022-1.196-0.007 0.398-0.015 0.797-0.022 1.196z" />
<glyph unicode="&#xe903;" glyph-name="all-for-one" data-tags="all-for-one" d="M369.833 100.278l-147.013-147.013h86.698c34.631 34.512 69.732 68.675 105.054 102.275l-44.739 44.739zM987.801 580.644l-230.893-93.291-248.304-248.304 50.472-50.472c75.973 67.569 151.535 130.97 224.385 187.771-57.149-73.295-120.323-148.769-187.587-224.568l51.499-51.499 248.306 248.304 92.123 232.059zM499.752 682.894h0.003c16.112-130.157 26.692-273.577 31.981-420.712l64.19 64.19-0.003 358.001-98.19 228.571-98.205-228.571-0.002-336.245-135.885 135.885-230.898 93.289 92.127-232.060 338.090-338.089c-17.119-18.019-34.39-35.992-51.815-53.888h89.213l8.244 8.244 11.588-11.586h85.799c-138.055 141.578-267.551 287.894-375.566 426.425 154.218-120.244 320.594-270.022 477.301-426.425h90.005l-329.654 329.656c5.586 140.707 16.093 277.417 31.677 403.316zM316.448 686.37l-119.297-150.070 129.888 66.692-3.54-117.534 67.678 127.434v87.047l53.201 123.824-97.691 104.867 32.292-107.475-188.473 97.668 125.942-154.968-226.229-38.277zM604.838 699.937v-91.453l62.546-117.77-5.138 170.656 1.866-61.966 130.875-68.002-125.942 154.968 226.229 39.206-226.229 38.277 125.942 154.968-184.627-95.675 31.692 105.482-92.705-99.515 22.191-51.658z" />
<glyph unicode="&#xe904;" glyph-name="alligator-clip" data-tags="alligator-clip" d="M985.453 574.319l-684.409 356.206-32.155-32.155c31.781-46.922 20.917-119.256-30.501-170.673s-125.406-64.030-172.328-32.155l-30.501-30.501 355.394-685.221 304.258 178.946-216.877 17.326 108.829 108.86-182.224 14.017 94.843 94.843-164.086 12.363 79.171 79.171-141.015 10.708 70.898 70.898-122.877 9.085c84.821 15.391 158.466 88.568 173.982 173.982l9.896-122.034 70.086 70.086 11.551-140.172 78.328 78.328 13.206-163.274 94 94 14.017-182.224 108.829 108.86 16.484-212.756 173.202 293.488z" />
<glyph unicode="&#xe905;" glyph-name="ammo-bag" data-tags="ammo-bag" d="M331.998 928.013c-15.696 0-29.995-14.701-29.995-29.995v-60.008h29.995v-60.008h-119.999c-136.481 0-150.012-106.276-149.995-149.995v-540.005c0-23.483-29.995-60.008-29.995-60.008v-60.008h959.993v60.008c0 0-29.995 36.525-29.995 60.008v540.022c0 43.736-13.514 149.995-149.995 149.995h-119.999v60.008h29.995v59.991c0 15.295-14.317 29.995-29.995 29.995h-360.015zM481.993 838.010h60.008c29.995 0 90.004 0 90.004-60.008h-239.998c0 60.008 59.991 60.008 89.986 60.008zM241.995 658.020h540.005c38.428 0 60.008-21.964 60.008-60.008v-479.997c0-16.936-15.469-29.995-29.995-29.995h-600.013c-14.526 0-29.995 13.060-29.995 29.995v479.997c0 38.044 21.58 60.008 59.991 60.008v0zM662 238.014h119.999v-60.008h-119.999v60.008zM662 268.009v210.003c0 76.315 60.008 119.999 60.008 119.999s60.008-43.684 60.008-119.999v-210.003h-120.017zM241.995 268.009v210.003c0 76.315 60.008 119.999 60.008 119.999s60.008-43.684 60.008-119.999v-210.003h-120.017zM451.997 268.009v210.003c0 76.315 60.008 119.999 60.008 119.999s60.008-43.684 60.008-119.999v-210.003h-120.017zM451.997 238.014h119.999v-60.008h-119.999v60.008zM241.995 238.014h119.999v-60.008h-119.999c0 0 0 60.008 0 60.008z" />
<glyph unicode="&#xe906;" glyph-name="anchor" data-tags="anchor" d="M923.865 612.617l51.982 3.931-176.546 190.486 40.845-200.747 42.575 3.219c22.53-143.738-4.275-281.603-85.127-385.149l-486.754 486.756c24.312 52.864 14.704 117.496-28.849 161.049-55.902 55.902-146.532 55.904-202.431 0.005-55.901-55.901-55.897-146.537 0.002-202.435 43.482-43.481 107.976-53.121 160.795-28.956l107.231-107.231c-42.774-39.326-87.86-76.341-134.662-111.641l60.142-60.142c37.404 45.011 75.791 88.757 115.503 130.798l338.597-338.597c-103.519-80.747-241.302-107.52-384.952-85.014l3.224 42.63-200.747 40.845 190.486-176.546 3.926 51.915c172.911-73.835 354.643-69.117 481.926 23.442l125.955-42.547-42.918 127.050c89.048 127.021 92.675 306.246 19.798 476.88zM117.713 707.857c-34.834 34.834-34.838 91.32 0 126.156 34.836 34.836 91.315 34.834 126.154-0.003 34.834-34.838 34.833-91.316-0.002-126.151s-91.318-34.838-126.152-0.002zM589.916 678.609l-60.142 60.142c-33.969-48.222-71.257-93.126-111.215-135.358l40.004-40.004c42.074 40.604 85.73 79.177 131.353 115.221z" />
<glyph unicode="&#xe907;" glyph-name="angel-wings" data-tags="angel-wings" d="M951.473 770.542c-25.755 59.035-80.684 90.608-103.362 67.9l0.005 0.003c-24.499-24.531 9.301-58.792 11.633-113.831-226.548-168.669-452.976-205.694-679.829-3.468 1.002 57.075 36.747 92.257 11.737 117.299l0.003-0.005c-22.678 22.708-77.607-8.865-103.362-67.9-86.454-198.165-19.15-718.163 175.443-702.733-43.932 100.82-87.441 215.588-113.235 336.924 52.585-144.75 144.409-270.729 235.289-239.99-63.929 80.24-131.874 174.235-179.765 280.217 69.919-118.158 170.442-211.347 245.641-170.706-59.389 53.076-122.917 114.89-177.317 186.229 79.434-74.892 174.528-122.808 224.629-74.892-41.54 20.201-86.507 45.392-129.261 74.809l149.537-65.001 136.8 55.577c-38.483-25.398-78.238-47.375-115.271-65.384 50.101-47.916 145.194 0 224.624 74.892-54.401-71.339-117.929-133.153-177.317-186.229 75.2-40.641 175.722 52.548 245.641 170.706-47.891-105.981-115.836-199.977-179.765-280.217 90.88-30.738 182.705 95.24 235.289 239.99-25.794-121.336-69.303-236.105-113.235-336.924 194.595-15.428 261.898 504.57 175.446 702.735zM179.9 721.164c-3.216 2.867-6.433 5.795-9.649 8.758 3.216-2.963 6.431-5.89 9.649-8.758zM147.556 751.64c-3.182 3.159-6.366 6.353-9.548 9.609 3.182-3.256 6.366-6.45 9.548-9.609zM169.015 731.057c-3.062 2.833-6.122 5.715-9.184 8.635 3.062-2.92 6.124-5.802 9.184-8.635zM158.122 741.328c-3.035 2.912-6.070 5.863-9.107 8.862 3.035-2.998 6.070-5.95 9.107-8.862zM871.414 733.412c-3.839-2.933-7.676-5.828-11.515-8.686 3.839 2.858 7.676 5.753 11.515 8.686zM895.009 751.909c3.83 3.077 7.662 6.189 11.493 9.34-3.83-3.151-7.662-6.261-11.493-9.34zM871.487 733.469c3.86 2.95 7.721 5.939 11.581 8.964-3.86-3.027-7.721-6.014-11.581-8.964zM883.266 742.588c3.825 2.998 7.652 6.034 11.478 9.106-3.827-3.072-7.652-6.106-11.478-9.106zM519.888 721.966c94.449 0 171.018 37.36 171.018 83.448 0 46.092-76.569 83.448-171.018 83.448s-171.018-37.362-171.018-83.448c0-46.087 76.569-83.448 171.018-83.448zM519.888 875.499c69.863 0 126.5-27.633 126.5-61.726 0-34.091-56.637-61.726-126.5-61.726s-126.5 27.636-126.5 61.726c0 34.089 56.637 61.726 126.5 61.726z" />
<glyph unicode="&#xe908;" glyph-name="ankh" data-tags="ankh" d="M163.357 240.796c246.268 157.444 407.545 323.688 556.914 563.432l122.975-121.554c-234.984-150.229-403.989-317.983-556.914-563.432l-122.975 121.55c0 0 0 0.003 0 0.003zM566.354 468.311c-23.176-22.054-45.674-44.787-67.589-68.317 132.736-88.951 225.771-252.512 314.724-413.25l170.716 172.715c-164.142 88.363-328.654 177.613-417.85 308.852zM174.123 552.040c79.854-78.928 182.89-89.855 249.704-112.951 36.208 33.384 70.395 68.033 103.060 104.403-23.372 66.765-36.481 168.708-116.392 247.694-119.182 117.807-268.599 159.557-333.821 93.57l0.002-0.002c-65.222-65.984-21.738-214.908 97.447-332.715zM153.53 808.578c33.366 33.755 120.194 2.030 193.939-70.861s106.478-159.346 73.112-193.102c-33.366-33.755-120.194-2.030-193.937 70.86s-106.478 159.346-73.113 193.103z" />
<glyph unicode="&#xe909;" glyph-name="anvil" data-tags="anvil" d="M844.007 485.357c49.535 15.794 99.069 51.020 148.604 102.086-49.575 51.977-98.010 77.573-148.604 87.205v72.41h-603.961v-52.586h-203.37c36.664-99.48 117.090-168.056 203.37-191.526v-85.77h159.042c-27.603-93.789-84.852-170.777-154.856-237.413h-60.095v-52.605c-0.261-0.21-0.518-0.424-0.778-0.635h0.778v-71.12h752.164v124.36h-79.969c-78.208 66.567-133.668 143.487-159.48 237.413h147.155v68.182z" />
<glyph unicode="&#xe90a;" glyph-name="apple" data-tags="apple" d="M493.591 641.86c-0.251 83.31-22.062 151.051-65.822 226.698 18.288 44.281 76.61 50.696 106.78 48.823 20.595-101.431 24.543-179.452 15.647-277.412zM1002.807 441.418c-2.897 220.325-159.923 365.109-350.51 323.181-33.942-7.469-66.74-20.221-97.641-37.517-0.162-27.975-1.686-56.576-4.458-87.114l-56.606 1.891c-0.084 27.765-2.576 53.796-7.464 78.97-34.271 19.605-70.825 33.698-108.609 41.287-23.956 4.811-47.642 7.434-70.165 6.65l0.003 0.005c-157.668-5.479-290.801-143.293-288.267-336.082 2.892-220.322 162.851-430.498 354.493-468.98 49.045-9.852 118.468-10.44 151.328 21.041 32.245-26.525 103.526-29.034 152.302-18.303 190.584 41.931 328.49 254.644 325.594 474.971zM692.713 541.832c-8.414-82.568-49.713-125.182-136.593-112.413-19.865 70.907 52.837 144.053 136.593 112.413zM521.059 626.637c62.020-62.165 52.399-120.722-8.897-176.678-75.307 48.412-59.888 150.379 8.897 176.678zM468.372 448.829c-80.906-34.136-131.57-3.239-160.416 74.582 73.148 51.624 161.867-0.95 160.416-74.582zM269.212 382.678c51.422 73.289 152.686 53.747 176.173-16.043-64.627-59.454-122.746-47.473-176.173 16.043zM307.203 201.199c-8.132 89.158 81.76 139.708 144.795 101.635-10.881-87.135-62.975-115.56-144.795-101.635zM496.301 110.195c-61.296 55.956-70.915 114.513-8.897 176.678 68.785-26.297 84.204-128.264 8.897-176.678zM676.47 203.175c-81.476-15.816-134.211 11.398-147.109 98.256 62.137 39.527 153.176-8.927 147.109-98.256zM552.886 375.518c36.035 64.22 139.167 64.616 176.088-16.94-64.288-52.5-123.625-53.479-176.088 16.94z" />
<glyph unicode="&#xe90b;" glyph-name="aquarius" data-tags="aquarius" d="M288.88 615.308l-216.884-153.091v171.168l281.994 186.46 70.218-136.050 177.444 138.641 72.108-135.956 177.852 132.866 95.636-141.992-2.536-225.115-135.698 156.831-186.405-135.966-69.209 138.382-185.73-129.941-78.791 133.763zM288.88 227.69l-216.884-153.109v171.168l281.994 186.45 70.218-136.032 177.444 138.633 72.108-135.956 177.852 132.874 95.636-142.002-2.536-225.115-135.698 156.831-186.405-135.956-69.209 138.382-185.73-129.949-78.791 133.782z" />
<glyph unicode="&#xe90c;" glyph-name="arcane-mask" data-tags="arcane-mask" d="M206.952 462.373c0-233.596 303.508-487.498 303.508-487.498s303.512 253.87 303.497 487.498c0.007 619.016-607.006 607.336-607.005 0zM423.971 206.984c-38.628 41.787-67.828 96.174-86.303 155.322-29.571 8.244-51.155 35.493-50.876 67.656 0.199 22.884 11.419 43.092 28.577 55.632-3.65 65.703 5.745 130.851 29.783 186.139l29.721-175.249c29.708-8.154 51.419-35.467 51.14-67.729-0.204-23.529-12.067-44.212-30.043-56.659l28.002-165.111zM596.939 206.984l28.002 165.11c-17.978 12.445-29.843 33.13-30.047 56.661-0.281 32.264 21.434 59.577 51.143 67.731l29.721 175.248c24.038-55.288 33.433-120.438 29.783-186.142 17.156-12.54 28.376-32.746 28.573-55.628 0.279-32.162-21.302-59.409-50.871-67.654-18.477-59.148-47.677-113.537-86.305-155.324z" />
<glyph unicode="&#xe90d;" glyph-name="archer" data-tags="archer" d="M832.253 737.496l16.162-62.098-74.56-14.69c-39.173 113.44-119.684 207.104-230.42 231.755 76.758-65.315 130.506-146.539 162.978-234.549l-272.937-42.363c-0.003-0.007-0.008-0.012-0.012-0.018 12.57 20.949 18.868 49.264 15.801 79.64-5.97 59.11-45.083 103.568-87.361 99.296s-71.712-55.65-65.741-114.76c2.008-19.877 7.776-38.083 16.138-53.352-0.002 0.002-0.002 0.003-0.003 0.007-88.978-2.367-152.71-23.149-185.294-76.351 42.099-39.543 125.422-46.489 190.532-36.171l40.516-110.041-105.427-424.733h68.259l121.988 337.264 220.001-337.264h67.076l-229.326 438.404-9.431 141.34 232.034 45.988c31.042-116.422 27.306-241.121-7.686-354.635 88.672 103.319 104.326 259.501 64.081 392.722l127.075 25.047-3.592 18.227 0.035 0.007 3.593-18.238-53.624-10.566 16.028-61.582 110.65 93.181-147.535 48.534zM363.578 581.984c-1.069 0.277-2.137 0.573-3.194 0.909 1.059-0.336 2.125-0.633 3.194-0.909zM367.626 581.082c-1.026 0.189-2.046 0.413-3.064 0.658 1.017-0.246 2.038-0.469 3.064-0.658zM314.181 623.062c-0.164 0.277-0.327 0.553-0.488 0.832 0.162-0.279 0.326-0.555 0.488-0.832zM322.665 610.602c-0.16 0.204-0.316 0.413-0.476 0.618 0.159-0.204 0.316-0.414 0.476-0.618zM319.333 615.082c-0.202 0.286-0.404 0.57-0.603 0.859 0.2-0.289 0.401-0.575 0.603-0.859zM317.225 618.163c-0.063 0.095-0.124 0.194-0.187 0.291 0.063-0.097 0.125-0.195 0.187-0.291zM324.219 608.681c0.266-0.322 0.535-0.64 0.803-0.956-0.269 0.317-0.538 0.633-0.803 0.956zM327.672 604.725c0.304-0.331 0.606-0.667 0.914-0.992-0.307 0.326-0.61 0.66-0.914 0.992zM330.112 602.158c0.366-0.369 0.735-0.732 1.104-1.092-0.369 0.362-0.738 0.723-1.104 1.092zM357.119 584.045c0.902-0.342 1.809-0.667 2.723-0.967-0.914 0.299-1.821 0.623-2.723 0.967zM333.532 598.884c0.464-0.423 0.93-0.847 1.4-1.258-0.471 0.411-0.935 0.834-1.4 1.258zM336.383 596.391c0.488-0.408 0.981-0.803 1.475-1.196-0.494 0.393-0.986 0.788-1.475 1.196zM339.731 593.745c0.638-0.478 1.28-0.949 1.926-1.405-0.646 0.454-1.288 0.925-1.926 1.405zM342.998 591.42c0.625-0.419 1.253-0.827 1.884-1.224-0.631 0.398-1.261 0.803-1.884 1.224zM346.292 589.32c0.8-0.479 1.605-0.94 2.416-1.385-0.81 0.444-1.615 0.905-2.416 1.385zM349.921 587.289c0.767-0.401 1.539-0.787 2.314-1.156-0.775 0.369-1.547 0.755-2.314 1.156zM353.181 585.684c0.945-0.431 1.898-0.834 2.853-1.218-0.957 0.384-1.909 0.785-2.853 1.218zM375.663 580.173c1.153-0.047 2.31-0.043 3.47-0.018-1.159-0.025-2.317-0.027-3.47 0.018zM367.932 581.020c1.116-0.199 2.238-0.354 3.364-0.488-1.126 0.134-2.248 0.287-3.364 0.488zM372.205 580.432c1.108-0.114 2.218-0.204 3.333-0.251-1.114 0.047-2.225 0.139-3.333 0.251zM380.013 580.181c1.168 0.043 2.339 0.112 3.511 0.231 1.303 0.132 2.593 0.309 3.87 0.53-1.278-0.221-2.568-0.398-3.87-0.53-1.174-0.119-2.344-0.185-3.511-0.231zM414.984 593.799c-0.18-0.145-0.364-0.282-0.545-0.426 0.18 0.144 0.364 0.281 0.545 0.426zM411.892 591.432c-0.237-0.17-0.479-0.329-0.718-0.496 0.239 0.167 0.481 0.326 0.718 0.496zM408.693 589.267c-0.301-0.19-0.606-0.364-0.909-0.548 0.302 0.184 0.61 0.357 0.909 0.548zM405.39 587.309c-0.369-0.204-0.747-0.386-1.119-0.581 0.371 0.195 0.75 0.378 1.119 0.581zM401.984 585.568c-0.446-0.21-0.902-0.394-1.353-0.593 0.451 0.199 0.905 0.384 1.353 0.593zM398.478 584.053c-0.531-0.209-1.076-0.388-1.614-0.58 0.538 0.192 1.082 0.371 1.614 0.58zM394.875 582.77c-0.631-0.2-1.275-0.364-1.913-0.543 0.638 0.179 1.281 0.342 1.913 0.543zM391.178 581.731c-0.783-0.192-1.58-0.339-2.374-0.498 0.795 0.157 1.592 0.306 2.374 0.498zM420.567 598.845c0.090 0.090 0.182 0.177 0.272 0.269-0.090-0.092-0.182-0.179-0.272-0.269zM417.565 596.009c0.134 0.119 0.269 0.234 0.403 0.354-0.132-0.12-0.269-0.234-0.403-0.354zM431.189 611.924c-0.007-0.010-0.015-0.022-0.022-0.032 0.008 0.012 0.015 0.022 0.022 0.032zM428.775 608.457c-0.015-0.020-0.030-0.040-0.045-0.060 0.015 0.018 0.030 0.038 0.045 0.060zM426.245 605.165c-0.032-0.038-0.063-0.077-0.095-0.117 0.032 0.040 0.063 0.077 0.095 0.117zM423.597 602.048c-0.055-0.062-0.112-0.122-0.167-0.184 0.055 0.062 0.112 0.122 0.167 0.184z" />
<glyph unicode="&#xe90e;" glyph-name="archery-target" data-tags="archery-target" d="M313.311 454.46c0-109.742 88.961-198.703 198.703-198.703s198.703 88.961 198.703 198.703-88.961 198.703-198.703 198.703-198.703-88.961-198.703-198.703zM512.087 573.89c65.999 0 119.501-53.502 119.501-119.501s-53.502-119.501-119.501-119.501c-65.999 0-119.501 53.502-119.501 119.501s53.502 119.501 119.501 119.501zM569.905 454.388c0-31.932-25.886-57.818-57.818-57.818s-57.818 25.886-57.818 57.818c0 31.932 25.886 57.818 57.818 57.818s57.818-25.886 57.818-57.818zM740.735 298.82c0.002 0.002 0.003 0.005 0.005 0.007l35.616-117.401c71.331 69.074 115.689 165.838 115.689 272.975 0 186.625-134.543 341.814-311.926 373.885l-25.294 83.378-103.421 0.002-26.166-87.276c-168.004-39.278-293.133-190.015-293.133-369.99 0-101.125 39.51-193.018 103.93-261.097l-62.192-207.436h93.618l46.912 144.015c41.728-25.475 88.744-43.145 139.027-50.939v-93.075h104.022v195.708c-14.749-2.432-29.883-3.718-45.322-3.718-20.139 0-39.767 2.173-58.682 6.261-39.563 8.551-75.97 25.577-107.241 49.068-29.664 22.287-54.708 50.386-73.414 82.63 0.142-0.244 0.291-0.481 0.433-0.723-23.903 40.903-37.612 88.488-37.612 139.284 0 108.302 62.27 202.045 152.954 247.42-0.022-0.010-0.042-0.020-0.063-0.030v0c37.205 18.629 79.187 29.128 123.628 29.128 36.659 0 71.643-7.151 103.658-20.106 101.353-41.015 172.859-140.355 172.859-256.413 0-57.71-17.689-111.282-47.924-155.615-20.345-29.828-46.376-55.458-76.531-75.353 0.007 0.005 0.010 0.008 0.017 0.012-31.645-20.879-67.831-35.432-106.758-41.855v-104.441c50.273 5.985 97.532 21.786 139.815 45.429l44.825-136.685h93.618l-94.941 312.958c-0.002-0.002-0.003-0.005-0.005-0.007z" />
<glyph unicode="&#xe90f;" glyph-name="arena" data-tags="arena" d="M152.010 928.008c-80.013-40.006-90.002-60.009-90.002-60.009 80.013-320 9.989-549.998-29.992-750.005 0 0 20.003-49.995 180.003-90.002v420.016c-0.025 160-60.009 480-60.009 480zM871.998 928.008c0 0-60.009-320-60.009-480v-419.991c160 40.006 180.003 90.002 180.003 90.002-40.006 200.006-110.005 430.005-29.992 750.005 0-0.025-9.989 19.978-90.002 59.984zM452.007 568.002c-80.013 0-180.003-29.992-180.003-29.992v-540.009c0 0 99.991-29.992 180.003-29.992h119.994c80.013 0 180.003 29.992 180.003 29.992v540.009c0 0-99.991 29.992-180.003 29.992h-119.994z" />
<glyph unicode="&#xe910;" glyph-name="aries" data-tags="aries" d="M689.939 855.036c-85.889-41.363-143.261-131.72-181.21-241.106-37.956 109.386-95.339 199.743-181.218 241.106-275.030 132.485-380.372-247.499-176.701-408.907h169.002c0 0-50.069 87.688-55.931 100.108-8.987 18.97-61.861 156.233 12.943 107.906 101.211-65.382 124.32-298.769 135.367-401.47 11.105-103.359 17.557-239.848 17.557-239.848h157.965c0 0 6.451 136.489 17.567 239.848 11.047 102.692 34.156 336.087 135.358 401.47 74.814 48.327 21.92-88.946 12.953-107.906-5.872-12.42-55.941-100.108-55.941-100.108h168.992c203.671 161.408 98.329 541.382-176.703 408.907z" />
<glyph unicode="&#xe911;" glyph-name="arrow-cluster" data-tags="arrow-cluster" d="M887.611 120.723l-88.26 103.518-80.615 10.824-181.424 214.613 173.192 200.279-19.339 16.725-163.269-188.804v300.291h-25.568v-287.108l-150.737 178.312-19.526-16.506 170.263-201.41v-3.146l-183.005-211.628-87.413-11.738-88.576-103.887 54.993-24.293-18.723-21.651 19.339-16.725 19.254 22.264 33.344-51.955 88.578 103.887-1.663 87.135 163.873 189.502v-183.689l-61.504-69.373v-141.765l61.504 18.598v-36.913h25.568v36.447l60.669-18.132v141.765l-60.669 67.643v197.408l165.42-195.679-1.779-93.325 88.26-103.513 34.488 53.74 22.707-26.86 19.526 16.506-21.486 25.416zM302.065 618.749l-18.849 101.292 97.911-34.664 46.234 20.301-190.591 67.472 36.951-198.557zM757.215 574.593l36.951 198.557-190.591-67.472 47.753-20.969 99.795 35.331-19.613-105.403zM514.741 848.056l44.813-77.518 56.29-16.961-101.199 175.032-100.765-175.032 56.276 17.030z" />
<glyph unicode="&#xe912;" glyph-name="arrow-flights" data-tags="arrow-flights" d="M534.938 498.377l53.753 203.301-35.099 35.1-33.554-74.951-0.634 109.14-47.117 47.117-24.231-39.514-4.655 68.401-77.543 77.545-53.688-203.052-133.963 134.156-62.884-62.887 135.011-135.201-206.512-54.605 33.491-33.491 101.963 2.001-74.382-29.584 78.804-78.804 65.849-4.094-25.751-17.808 41.397-2.573-33.71-23.311 35.172-35.172 206.267 54.541 480.852-481.529h50.074v75.694zM688.695 544.263l63.766-4.342-36.839-22.585 61.589-61.587 118.801 31.413 107.833-107.835v112.961l-53.859 53.86 29.619 112.016-139.843 139.841-29.619-112.011-76.464 76.465-55.898-57.065 78.391-78.393-118.804-31.413 51.327-51.327zM897.785 487.63v0zM797.43 637.914v0zM344.205 31.824v0l41.181 155.74-27.792 27.79-24.235-39.536-4.662 68.434-83.155 83.153-29.582-111.874-76.186 76.45-57.060-57.065 78.661-78.661-118.235-31.264 107.988-107.987h68.185l-33.002-30.974 114.904 30.382 63.312-63.312h112.958l-121.782 122.204z" />
<glyph unicode="&#xe913;" glyph-name="arson" data-tags="arson" d="M676.429 730.072c38.574-55.764 23.507-120.568-17.597-147.665 27.024 136.378-241.211 210.159-74.436 345.044l0.002 0.119c-222.963-28.398-270.709-199.62-190.149-332.547-86.316 35.748-123.591 88.387-87.294 164.958-83.341-43.231-127.326-129.236-125.468-222.054 1.454-72.579 30.504-129.216 75.485-170.29-22.685 57.965-28.618 118.479-14.137 169.537 71.484-98.662 275.59 40.001 294.208 158.574-0.075-127.347 127.956-236.723 225.399-104.773 17.373-71.916 13.514-146.404-4.849-206.336 37.513 39.518 61.356 90.694 63.12 153.285 2.525 89.754-42.115 148.94-144.282 192.147zM820.811 262.425l-307.757 235.478-307.759-235.478zM734.678 328.329v146.952h-126.235v-50.365zM288.673 262.425v-302.395h446.006v302.395h-446.006zM427.465 45.484h-74.017v71.173h74.017v-71.173zM427.465 168.535h-74.017v71.173h74.017v-71.173zM547.039 45.484h-74.017v71.173h74.017v-71.173zM547.039 168.535h-74.017v71.173h74.017v-71.173zM594.014 239.706h74.017v-71.173h-74.017v71.173zM669.457-31.383h-74.017v146.616h74.017v-146.616z" />
<glyph unicode="&#xe914;" glyph-name="aura" data-tags="aura" d="M987.604 236.161c-58.806 38.596-150.68 89.17-150.68 146.002s91.877 109.747 150.675 148.343c-67.75-0.848-156.531 21.921-181.047 71.248-24.628 49.562 19.99 116.468 54.899 184.549-58.401-40.246-115.163-92.766-157.686-64.244s-62.794 132.293-61.903 211.412l-0.003 0.002c-33.292-69.167-76.892-120.31-126.148-120.31-49.043 0-94.071 50.504-127.314 119.14 0.733-78.717-19.448-181.765-61.903-210.246-42.456-28.483-99.281 23.997-157.686 64.244 34.91-68.081 84.199-134.987 59.571-184.549-24.422-49.15-118.317-71.916-185.72-71.248 58.674-38.582 157.683-91.574 157.688-148.343 0.003-56.768-99.008-107.423-157.688-146.002 67.402 0.666 161.293-23.268 185.72-72.418 24.456-49.217-18.039-112.613-67.477-171.12 89.654 30.825 130.267 11.488 170.732-21.604h63.493c-85.474 70.83-144.093 215.652-144.093 383.112-0.003 237.242 117.832 429.837 262.807 429.837h0.003c144.975 0 262.807-192.601 262.807-429.837 0-167.462-58.619-312.282-144.093-383.112h54.553c39.695 29.239 79.603 51.319 179.384 18.579-52.467 60.526-84.398 124.925-59.937 174.147 24.512 49.331 113.298 73.266 181.047 72.418zM582.783 542.653c18.767 23.537 30.835 56.246 30.835 92.486-0.002 71.565-45.566 129.329-101.535 129.329-3.499 0-7.119 0.445-10.529 0l0.003-0.003c-51.106-6.641-91.005-62.231-91.005-129.329 0-37.16 12.731-70.345 32.338-93.989-106.282-19.996-114.318-199.093-114.318-324.826h73.705l19.556-262.418h187.272l17.298 262.418h69.948c0 126.084 2.53 308.333-113.567 326.331z" />
<glyph unicode="&#xe915;" glyph-name="aware" data-tags="aware" d="M601.143 627.97c21.608 26.892 35.49 64.323 35.49 105.755 0 81.833-52.44 147.874-116.855 147.874-4.034 0-8.192 0.5-12.132 0-58.818-7.598-104.754-71.17-104.754-147.874 0-42.496 14.666-80.426 37.21-107.475-122.328-22.859-131.582-227.644-131.582-371.392h84.835l22.515-300.032h215.542l19.918 300.032h80.52c0.002 144.155 2.91 352.535-130.706 373.112zM795.901 923.41c67.967-43.992 111.698-110.073 111.698-184.559 0-74.048-43.127-140.529-110.446-184.559 115.277 33.258 194.846 103.521 194.846 184.559-0.044 81.326-80.13 151.447-196.098 184.559zM713.055 601.014c86.081 24.852 145.508 77.324 145.508 137.837 0 60.767-59.817 113.13-146.415 137.837 50.803-32.858 83.407-82.199 83.407-137.837 0-55.309-32.214-104.978-82.501-137.837zM691.923 738.851c0-40.063-23.331-76.050-59.773-99.884 62.36 18.012 105.445 56.036 105.445 99.884 0 44.030-43.341 81.945-106.135 99.884 36.787-23.833 60.463-59.566 60.463-99.884zM131.116 738.851c0 74.486 43.729 140.567 111.698 184.559-115.968-33.113-196.096-103.233-196.096-184.559 0-81.037 79.569-151.301 194.846-184.559-67.321 44.030-110.448 110.512-110.448 184.559zM180.15 738.851c0-60.513 59.427-112.985 145.508-137.837-50.285 32.858-82.501 82.527-82.501 137.837 0 55.639 32.604 104.978 83.407 137.837-86.6-24.707-146.459-77.069-146.415-137.837zM406.521 638.968c-36.442 23.833-59.773 59.82-59.773 99.884 0 40.316 23.676 76.049 60.463 99.884-62.748-17.938-106.135-55.855-106.135-99.884 0-43.846 43.085-81.871 105.445-99.884z" />
<glyph unicode="&#xe916;" glyph-name="axe-swing" data-tags="axe-swing" d="M962.983 553.843c-56.772 218.542-251.195 360.764-461.335 354.158-176.812 10.565-355.741-64.348-464.344-206.222 52.167 44.424 114.146 76.601 180.184 94.989-124.506-107.398-189.246-278.16-159.327-450.56 2.185 56.519 15.628 111.333 38.596 161.32 0 0.020 0 0.040 0 0.060 2.296-102.997 36.934-204.3 104.401-286.742-76.844 153.689-44.798 391.185 83.908 483.684-1.429-1.036-2.848-2.088-4.257-3.154 23.338 11.927 48.141 21.675 74.26 28.884 214.135 59.164 433.838-72.548 491.249-293.276 36.727-141.292-2.209-284.787-91.108-385.39 5.393 6.104 10.601 12.365 15.621 18.775-107.306 20.211-106.468 126.036 28.016 229.841l-98.374 73.014c-3.925-11.565-8.103-22.374-12.494-32.46l-386.008 272.145c-37.368 21.583-61.038-22.483-31.488-41.492l392.691-276.867c-65.452-98.353-156.97-77.553-197.443 29.487-107.85-91.245-57.818-254.533 45.811-326.736 94.457-65.839 235.319-51.993 297.27 63.195 136.627 115.254 202.876 305.972 154.172 493.345zM514.816 907.050c0.49-0.042 0.982-0.087 1.472-0.129-0.49 0.042-0.98 0.087-1.472 0.129zM528.205 905.756c0.579-0.064 1.158-0.125 1.737-0.189-0.579 0.064-1.158 0.125-1.737 0.189zM542.171 904.058c0.343-0.047 0.688-0.089 1.032-0.136-0.345 0.049-0.689 0.090-1.032 0.136zM560.267 763.661c-2.88 1.498-5.771 2.955-8.674 4.384 2.903-1.429 5.796-2.886 8.674-4.384zM548.484 769.549c-2.097 1.012-4.198 2.011-6.306 2.988 2.107-0.977 4.208-1.976 6.306-2.988zM538.771 774.1c-2.153 0.977-4.314 1.931-6.479 2.871 2.165-0.94 4.325-1.894 6.479-2.871zM529.298 778.273c-3.112 1.325-6.234 2.62-9.368 3.872 3.134-1.25 6.254-2.547 9.368-3.872zM518.72 782.615c-2.772 1.098-5.555 2.167-8.343 3.206 2.788-1.039 5.568-2.108 8.343-3.206zM507.225 786.972c-2.204 0.803-4.412 1.591-6.626 2.358 2.214-0.766 4.422-1.554 6.626-2.358zM464.966 800.064c-2.363 0.607-4.728 1.196-7.098 1.765 2.369-0.569 4.735-1.158 7.098-1.765zM497.272 790.473c-2.349 0.793-4.703 1.564-7.063 2.317 2.359-0.755 4.713-1.524 7.063-2.317zM487.541 793.647c-3.241 1.014-6.489 1.996-9.746 2.935 3.258-0.939 6.507-1.919 9.746-2.935zM476.411 796.97c-2.809 0.8-5.624 1.574-8.445 2.319 2.819-0.746 5.635-1.519 8.445-2.319zM238.617 802.15c-7.059-1.631-14.078-3.418-21.054-5.359 6.976 1.941 13.996 3.728 21.054 5.359zM346.614 814.697c-3.253-0.012-6.504-0.060-9.755-0.137 3.249 0.077 6.502 0.125 9.755 0.137zM335.126 814.515c-3.049-0.084-6.095-0.194-9.142-0.336 3.045 0.141 6.092 0.253 9.142 0.336zM324.692 814.12c-7.114-0.348-14.219-0.85-21.305-1.511 7.086 0.661 14.189 1.163 21.305 1.511zM303.102 812.582c-3.358-0.315-6.711-0.669-10.061-1.054 3.348 0.385 6.701 0.738 10.061 1.054zM291.756 811.378c-3.258-0.383-6.51-0.795-9.758-1.243 3.248 0.448 6.502 0.862 9.758 1.243zM281.393 810.053c-7.138-0.994-14.252-2.143-21.335-3.45 7.083 1.307 14.195 2.458 21.335 3.45zM259.919 806.577c-3.385-0.626-6.761-1.29-10.13-1.988 3.368 0.696 6.745 1.362 10.13 1.988zM248.81 804.387c-3.385-0.706-6.763-1.444-10.131-2.222 3.37 0.778 6.748 1.516 10.131 2.222zM99.969 576.107c0.43 3.691 0.893 7.382 1.407 11.068-0.515-3.686-0.975-7.375-1.407-11.068zM97.349 545.094c0.055 1.032 0.102 2.066 0.164 3.099-0.062-1.032-0.109-2.065-0.164-3.099zM97.951 554.667c0.124 1.717 0.258 3.433 0.4 5.148-0.144-1.715-0.274-3.432-0.4-5.148zM98.828 565.22c0.211 2.247 0.447 4.494 0.689 6.74-0.243-2.245-0.477-4.493-0.689-6.74zM289.37 707.561c0.179 0.122 0.351 0.251 0.53 0.373h0.002c-0.179-0.122-0.353-0.251-0.532-0.373zM347.178 814.702c7.012 0.017 14.028-0.127 21.044-0.418-7.016 0.291-14.031 0.435-21.044 0.418zM454.807 802.555c-2.634 0.612-5.271 1.2-7.911 1.765 2.64-0.564 5.279-1.151 7.911-1.765zM444.883 804.76c-3.377 0.708-6.76 1.38-10.148 2.011 3.387-0.632 6.77-1.303 10.148-2.011zM433.5 806.991c-2.936 0.539-5.878 1.049-8.821 1.531 2.943-0.482 5.885-0.992 8.821-1.531zM422.013 808.943c-2.57 0.405-5.142 0.79-7.717 1.151 2.575-0.361 5.147-0.745 7.717-1.151zM411.686 810.459c-3.027 0.408-6.055 0.788-9.085 1.138 3.030-0.35 6.059-0.73 9.085-1.138zM401.631 811.714c-3.514 0.397-7.031 0.753-10.551 1.071 3.52-0.318 7.037-0.674 10.551-1.071zM390.157 812.86c-3.097 0.273-6.194 0.514-9.295 0.724 3.1-0.211 6.198-0.45 9.295-0.724zM378.634 813.73c-2.808 0.179-5.615 0.333-8.423 0.462 2.808-0.131 5.615-0.283 8.423-0.462zM583.278 896.892c0.666-0.142 1.329-0.296 1.993-0.442-0.664 0.146-1.329 0.3-1.993 0.442zM596.077 893.972c1.014-0.244 2.026-0.495 3.039-0.745-1.012 0.249-2.025 0.5-3.039 0.745zM609.001 890.686c1.083-0.289 2.163-0.576 3.244-0.872-1.081 0.296-2.163 0.582-3.244 0.872zM622.343 886.931c0.902-0.266 1.805-0.522 2.706-0.793-0.9 0.273-1.804 0.527-2.706 0.793zM650.489 877.765c0.843-0.301 1.68-0.624 2.522-0.929-0.842 0.305-1.68 0.626-2.522 0.929zM662.776 873.183c1.354-0.524 2.701-1.066 4.051-1.6-1.35 0.534-2.699 1.076-4.051 1.6zM675.042 868.252c1.489-0.619 2.977-1.248 4.462-1.882-1.486 0.634-2.972 1.263-4.462 1.882zM687.365 862.932c1.476-0.659 2.953-1.315 4.424-1.988-1.471 0.673-2.947 1.329-4.424 1.988zM700.041 857.063c1.268-0.607 2.542-1.2 3.807-1.819-1.265 0.619-2.538 1.211-3.807 1.819zM740.166 12.532c-1.17-0.669-2.336-1.344-3.514-2.003 1.178 0.658 2.342 1.334 3.514 2.003zM733.047 28.413c1.769 1.712 3.524 3.435 5.261 5.177-1.735-1.742-3.49-3.467-5.261-5.177zM714.208 11.297c-1.605-1.367-3.226-2.714-4.852-4.058 1.628 1.344 3.249 2.691 4.852 4.058zM755.167 51.546c-1.764-1.996-3.547-3.974-5.349-5.935 1.802 1.961 3.586 3.939 5.349 5.935zM749.67 45.451c-1.764-1.917-3.547-3.817-5.348-5.699 1.8 1.882 3.584 3.781 5.348 5.699zM744.048 39.462c-1.755-1.832-3.53-3.648-5.321-5.448 1.792 1.8 3.566 3.616 5.321 5.448zM732.448 27.829c-1.71-1.646-3.437-3.276-5.177-4.892 1.74 1.618 3.469 3.246 5.177 4.892zM726.474 22.192c-1.68-1.553-3.377-3.089-5.083-4.613 1.707 1.524 3.405 3.060 5.083 4.613zM720.396 16.682c-1.645-1.461-3.308-2.901-4.976-4.337 1.67 1.434 3.331 2.876 4.976 4.337zM695.038-4.059c-1.523-1.144-3.064-2.269-4.605-3.393 1.539 1.126 3.082 2.249 4.605 3.393zM707.917 6.045c-1.569-1.283-3.157-2.548-4.749-3.808 1.591 1.26 3.179 2.523 4.749 3.808zM701.53 0.929c-1.533-1.201-3.084-2.383-4.635-3.564 1.551 1.18 3.102 2.361 4.635 3.564zM697.722 270.194v0 0zM681.78-13.61c-2.237-1.543-4.489-3.064-6.76-4.563 3.305 1.25 6.586 2.54 9.85 3.86-3.263-1.32-6.544-2.61-9.85-3.86 2.271 1.499 4.524 3.020 6.76 4.563zM688.458-8.901c-1.578-1.136-3.172-2.25-4.769-3.363 1.596 1.113 3.192 2.225 4.769 3.363zM731.635 7.779c-1.4-0.761-2.799-1.521-4.21-2.267 1.411 0.746 2.809 1.508 4.21 2.267zM722.69 3.045c-1.549-0.798-3.104-1.59-4.665-2.371 1.561 0.781 3.116 1.573 4.665 2.371zM713.5-1.558c-1.687-0.822-3.382-1.628-5.080-2.429 1.7 0.8 3.393 1.608 5.080 2.429zM704.124-5.995c-1.851-0.85-3.713-1.678-5.578-2.505 1.864 0.825 3.728 1.655 5.578 2.505zM694.577-10.25c-2.127-0.917-4.268-1.807-6.413-2.694 2.145 0.887 4.288 1.777 6.413 2.694zM745.713 15.728c0.515 0.305 1.022 0.619 1.536 0.924-0.515-0.305-1.021-0.621-1.536-0.924zM769.81 30.979c0.243 0.164 0.489 0.323 0.73 0.489-0.241-0.164-0.487-0.325-0.73-0.489zM801.079 54.121c0.3 0.243 0.597 0.487 0.897 0.73-0.3-0.243-0.597-0.487-0.897-0.73zM777.338 36.19c0.47 0.333 0.944 0.661 1.414 0.994-0.47-0.333-0.944-0.661-1.414-0.994zM785.281 41.925c0.494 0.363 0.987 0.726 1.477 1.093-0.49-0.365-0.986-0.728-1.477-1.093zM793.219 47.919c0.44 0.34 0.88 0.683 1.32 1.024-0.44-0.343-0.88-0.684-1.32-1.024z" />
<glyph unicode="&#xe917;" glyph-name="axe" data-tags="axe" d="M439.752 261.428l264.7 264.698-14.104 14.104 60.015 60.013-87.232 87.234-60.015-60.015-14.105 14.105-10.92-10.92c-37.888 75.191-30.805 166.974 37.033 282.885l-0.002 0.003c-329.678 132.36-685.271-269.162-571.215-583.966 106.837 62.11 217.013 88.614 299.25 66.146l-18.846-18.846 14.105-14.105-316.969-316.967v-90.817h83.649l320.552 320.552 14.104-14.104zM978.495 550.161c-117.528-68.782-210.087-75.332-285.749-35.741l-232.906-232.906c24.15-82.545-2.302-194.184-65.31-302.568 314.802-114.055 716.326 241.539 583.966 571.215z" />
<glyph unicode="&#xe918;" glyph-name="ball" data-tags="ball" d="M515.129 906.055c-250.462 0-453.513-203.053-453.513-453.522s203.043-453.513 453.513-453.513 453.512 203.044 453.512 453.512-203.049 453.523-453.512 453.523zM779.030 161.155c69.42 102.113 82.247 245.712 29.11 379.984-19.859-41.358-62.13-69.913-111.075-69.913-68.012 0-123.147 55.134-123.147 123.146 0 38.818 17.979 73.421 46.045 95.992-18.429 8.857-31.645 26.828-33.807 48.070-10.126-11.946-25.232-19.536-42.119-19.536-30.488 0-55.204 24.715-55.204 55.202 0 18.193 8.805 34.327 22.383 44.384-31.799 8.712-64.126 13.133-96.141 12.968 33.167 9.132 68.088 14.037 104.159 14.037 216.209 0 391.49-175.284 391.49-391.499 0-116.515-50.918-221.121-131.693-292.836z" />
<glyph unicode="&#xe919;" glyph-name="barbed-arrow" data-tags="barbed-arrow" d="M495.843 182.251c130.325-120.277 302.711-198.098 492.342-207.008-8.613 190.080-86.786 362.038-207.018 492.354 15.789-62.725 23.617-131.032 21.748-203.935-11.169 11.236-22.376 22.473-33.688 33.789-31.186 31.186-62.681 62.117-94.367 92.686l53.201 106.795-108.46-54.031c-37.238 35.184-74.645 69.774-112.035 103.598l50.532 101.436-105.282-52.448c-37.32 33.022-74.531 65.189-111.447 96.313l42.813 85.939-91.331-45.499c-34.058 28.061-67.788 55.152-101.044 81.132l36.483 73.235-79.859-39.782c-35.543 27.055-70.454 52.735-104.537 76.838 23.991-33.889 49.53-68.558 76.411-103.822l-40.917-82.134 75.372 37.547c25.657-32.76 52.386-65.96 80.064-99.473l-47.054-94.454 88.966 44.319c30.299-35.817 61.589-71.907 93.695-108.11l-56.853-114.123 110.072 54.835c33.142-36.483 67.028-72.991 101.493-109.366l-54.467-109.336 107.757 53.681c43.097-44.547 86.941-88.762 131.236-132.345-76.595-2.873-148.427 4.759-213.826 21.369z" />
<glyph unicode="&#xe91a;" glyph-name="barrier" data-tags="barrier" d="M977.289 448.15c0 257.99-209.14 467.128-467.126 467.128s-467.124-209.14-467.124-467.128c0-90.997 26.046-175.899 71.052-247.708-22.485 52.227-34.96 109.778-34.96 170.25 0 238.024 192.956 430.979 430.975 430.979s430.977-192.955 430.977-430.979c0-60.707-12.577-118.47-35.227-170.859 45.24 71.937 71.433 157.063 71.433 248.317zM510.106 735.156l-135.208-395.585-203.457 56.584v-392.633l145.104 153.319 75.21-57.917 27.69-120.919h181.383l27.701 120.972 75.136 57.862 145.101-153.316v392.631l-203.45-56.581-135.21 395.581zM577.011 320.578v0c0.094-2.258 0.177-4.544 0.251-6.847 0.012-0.347 0.020-0.698 0.030-1.046 0.058-1.906 0.109-3.829 0.15-5.766 0.012-0.535 0.023-1.071 0.033-1.607 0.037-1.883 0.067-3.779 0.089-5.69 0.005-0.448 0.012-0.892 0.017-1.341 0.023-2.372 0.037-4.763 0.037-7.18h-135.031c0 2.345 0.013 4.664 0.035 6.968 0.007 0.68 0.017 1.353 0.025 2.030 0.020 1.655 0.045 3.301 0.077 4.933 0.013 0.723 0.028 1.443 0.045 2.162 0.037 1.679 0.082 3.346 0.13 5.001 0.017 0.581 0.032 1.166 0.050 1.744 0.072 2.22 0.15 4.422 0.242 6.6 9.363 221.585 124.434 221.333 133.82 0.040z" />
<glyph unicode="&#xe91b;" glyph-name="bat-sword" data-tags="bat-sword" d="M843.447 184.979l-31.159 78.095-238.559 214.851c117.55 57.344 251.473 51.33 284.749-104.43 183.187 144.942 144.574 360.096 7.14 553.992 34.783-99.731-37.968-199.089-148.67-102.605 51.385-112.249-57.379-182.222-131.84-116.881 35.097-113.958-33.329-155.045-103.665-146.96l-133.282 120.037c41.216 36.861 86.362 69.682 135.121 97.833l-85.126 85.127-118.946-118.946c-80.59 33.206-141.995 98.401-188.909 187.746l-61.802-61.806c79.040-39.931 146.038-96.72 187.744-188.914l-118.946-118.944 86.293-85.127c28.284 48.992 61.245 94.746 98.471 136.675l123.618-137.582c6.385-69.873-35.192-136.271-147.319-101.359 65.349-75.283-4.624-185.242-116.875-133.294 96.483-111.917-2.883-185.464-102.604-150.304 193.898-138.952 409.052-177.986 553.996 7.22l-0.002 0.007c-155.123 33.503-161.729 167.926-105.141 286.409l211.694-235.605 77.433-30.897c-22.015-13.743-47.269-24.25-75.794-31.485l286.441-110.995-110.995 286.451c-7.51-29.616-18.541-55.709-33.067-78.308z" />
<glyph unicode="&#xe91c;" glyph-name="battered-axe" data-tags="battered-axe" d="M946.36 876.538c-96.057-214.044-249.731-207.069-403.969-129.791l37.738 54.072c-24.775 37.484-69.871 64.654-111.516 76.848l-42.019-61.524c-35.132 24.011-69.513 49.773-102.428 75.388l-0.007-0.007c-3.961-6.034-7.641-11.869-11.080-17.538-67.845 38.349-157.474 55.396-258.245 55.396 99.809-40.31 178.113-93.819 213.146-184.851-2.030-27.668-0.309-55.657-0.309-89.808 11.86-6.567 23.398-13.461 34.574-20.65l-261.157-382.386 1.6-220.927 361.579 518.079c107.578-119.1 121.076-273.051-68.96-392.977 103.72-30.189 200.425-31.741 286.869-11.662l17.493 110.784 74.017-77.129c61.306 35.133 151.694 99.911 191.805 157.628l-64.083 110.751 109.616-30.319c67.267 103.392 74.48 327.516-4.664 460.623z" />
<glyph unicode="&#xe91d;" glyph-name="batteries" data-tags="batteries" d="M918.904 345.435c-4.806 2.053-9.864 3.267-15.108 3.717l0.459 1.061-148.834 64.515c-0.030 0.013-0.060 0.022-0.090 0.035l-234.957 101.84v-121.504l180.824 33.822-6.067-23.452c0 0 0 0 0 0l-23.629-91.346-55.934-2.016c0 0 0 0 0-0.002l-95.194-3.429v-165.756l98.685-42.774c0.002-0.002 0.003-0.002 0.007-0.003v0l148.836-64.512 0.162 0.374c3.528-2.887 7.395-5.259 11.603-7.056 45.641-19.491 113.809 35.559 152.259 122.954s32.621 174.042-13.021 193.533zM919.971 157.009c-17.298-39.32-46.379-64.764-64.953-56.833s-19.606 46.237-2.309 85.557c17.298 39.32 46.379 64.764 64.953 56.833s19.606-46.237 2.309-85.557zM333.41 889.949c-95.882 0-173.611-39.991-173.611-89.324 0-1.448 0.074-2.888 0.205-4.32v-183.931c-25.398-22.269-49.697-56.131-67.482-97.161-36.929-85.199-32.115-169.77 10.287-191.206l-0.035-0.082 2.491-1.079c0.003-0.002 0.007-0.003 0.010-0.005v0l58.874-25.518v-226.824h-0.005c0-0.068 0.005-0.135 0.005-0.202v-2.526h0.085c2.806-47.43 78.487-85.478 171.342-85.478s168.537 38.048 171.342 85.478h0.092v724.918h-0.68c0.448 2.614 0.69 5.26 0.69 7.935 0 49.332-77.729 89.324-173.611 89.324zM333.406 877.026c43.138 0 78.108-16.274 78.108-36.351s-34.97-36.349-78.108-36.349c-43.137 0-78.108 16.274-78.108 36.349s34.97 36.351 78.108 36.351zM240.435 350.277v0l-23.724 24.927 73.583 25.7-117.606 174.174 117.139 18.407 113.388-237.743-47.76-23.654 103.307-211.208-218.326 229.398z" />
<glyph unicode="&#xe91e;" glyph-name="battery-0" data-tags="battery-0" d="M402.012 928.008c-29.992 0-40.006-6.751-40.006-40.006v-29.992h-90.002c-59.106 0-69.998-10.918-69.998-69.998v-750.005c0-59.106 10.918-69.998 69.998-69.998h480c59.106 0 69.998 10.918 69.998 69.998v750.005c0 59.106-10.918 69.998-69.998 69.998h-90.002v29.992c0 33.23-9.989 40.006-40.006 40.006h-219.984zM272.004 717.988c0 80.013-9.989 69.998 69.998 69.998 40.006 0 310.011 0 340.003 0 80.013 0 69.998 9.989 69.998-69.998 0-40.006 0-570.002 0-610.008 0-80.013 9.989-69.998-69.998-69.998-40.006 0-299.997 0-340.003 0-80.013 0-69.998-9.989-69.998 69.998 0 40.031 0 570.027 0 610.008z" />
<glyph unicode="&#xe91f;" glyph-name="battery-25" data-tags="battery-25" d="M402.012 928.008c-29.992 0-40.006-6.751-40.006-40.006v-29.992h-90.002c-59.106 0-69.998-10.918-69.998-69.998v-750.005c0-59.106 10.918-69.998 69.998-69.998h480c59.106 0 69.998 10.918 69.998 69.998v750.005c0 59.106-10.918 69.998-69.998 69.998h-90.002v29.992c0 33.23-9.989 40.006-40.006 40.006h-219.984zM272.004 717.988c0 80.013-9.989 69.998 69.998 69.998 40.006 0 310.011 0 340.003 0 80.013 0 69.998 9.989 69.998-69.998 0-40.006 0-570.002 0-610.008 0-80.013 9.989-69.998-69.998-69.998-40.006 0-299.997 0-340.003 0-80.013 0-69.998-9.989-69.998 69.998 0 40.031 0 570.027 0 610.008zM321.999 217.992h379.999c11.046 0 20-8.955 20-20v-110c0-11.046-8.955-20-20-20h-379.999c-11.046 0-20 8.955-20 20v110c0 11.045 8.955 20 20 20z" />
<glyph unicode="&#xe920;" glyph-name="battery-50" data-tags="battery-50" d="M402.012 928.008c-29.992 0-40.006-6.751-40.006-40.006v-29.992h-90.002c-59.106 0-69.998-10.918-69.998-69.998v-750.005c0-59.106 10.918-69.998 69.998-69.998h480c59.106 0 69.998 10.918 69.998 69.998v750.005c0 59.106-10.918 69.998-69.998 69.998h-90.002v29.992c0 33.23-9.989 40.006-40.006 40.006h-219.984zM272.004 717.988c0 80.013-9.989 69.998 69.998 69.998 40.006 0 310.011 0 340.003 0 80.013 0 69.998 9.989 69.998-69.998 0-40.006 0-570.002 0-610.008 0-80.013 9.989-69.998-69.998-69.998-40.006 0-299.997 0-340.003 0-80.013 0-69.998-9.989-69.998 69.998 0 40.031 0 570.027 0 610.008zM321.999 397.991h379.999c11.046 0 20-8.955 20-20v-110c0-11.046-8.955-20-20-20h-379.999c-11.046 0-20 8.955-20 20v110c0 11.046 8.955 20 20 20zM321.999 217.992h379.999c11.046 0 20-8.955 20-20v-110c0-11.046-8.955-20-20-20h-379.999c-11.046 0-20 8.955-20 20v110c0 11.045 8.955 20 20 20z" />
<glyph unicode="&#xe921;" glyph-name="battery-75" data-tags="battery-75" d="M402.012 928.008c-29.992 0-40.006-6.751-40.006-40.006v-29.992h-90.002c-59.106 0-69.998-10.918-69.998-69.998v-750.005c0-59.106 10.918-69.998 69.998-69.998h480c59.106 0 69.998 10.918 69.998 69.998v750.005c0 59.106-10.918 69.998-69.998 69.998h-90.002v29.992c0 33.23-9.989 40.006-40.006 40.006h-219.984zM272.004 717.988c0 80.013-9.989 69.998 69.998 69.998 40.006 0 310.011 0 340.003 0 80.013 0 69.998 9.989 69.998-69.998 0-40.006 0-570.002 0-610.008 0-80.013 9.989-69.998-69.998-69.998-40.006 0-299.997 0-340.003 0-80.013 0-69.998-9.989-69.998 69.998 0 40.031 0 570.027 0 610.008zM321.999 577.991h379.999c11.046 0 20-8.955 20-20v-110c0-11.046-8.955-20-20-20h-379.999c-11.046 0-20 8.955-20 20v110c0 11.046 8.955 20 20 20zM321.999 397.991h379.999c11.046 0 20-8.955 20-20v-110c0-11.046-8.955-20-20-20h-379.999c-11.046 0-20 8.955-20 20v110c0 11.046 8.955 20 20 20zM321.999 217.992h379.999c11.046 0 20-8.955 20-20v-110c0-11.046-8.955-20-20-20h-379.999c-11.046 0-20 8.955-20 20v110c0 11.045 8.955 20 20 20z" />
<glyph unicode="&#xe922;" glyph-name="battery-100" data-tags="battery-100" d="M402.012 928.008c-29.992 0-40.006-6.751-40.006-40.006v-29.992h-90.002c-59.106 0-69.998-10.918-69.998-69.998v-750.005c0-59.106 10.918-69.998 69.998-69.998h480c59.106 0 69.998 10.918 69.998 69.998v750.005c0 59.106-10.918 69.998-69.998 69.998h-90.002v29.992c0 33.23-9.989 40.006-40.006 40.006h-219.984zM272.004 717.988c0 80.013-9.989 69.998 69.998 69.998 40.006 0 310.011 0 340.003 0 80.013 0 69.998 9.989 69.998-69.998 0-40.006 0-570.002 0-610.008 0-80.013 9.989-69.998-69.998-69.998-40.006 0-299.997 0-340.003 0-80.013 0-69.998-9.989-69.998 69.998 0 40.031 0 570.027 0 610.008zM321.999 757.991h379.999c11.046 0 20-8.955 20-20v-110c0-11.046-8.955-20-20-20h-379.999c-11.046 0-20 8.955-20 20v110c0 11.046 8.955 20 20 20zM321.999 577.991h379.999c11.046 0 20-8.955 20-20v-110c0-11.046-8.955-20-20-20h-379.999c-11.046 0-20 8.955-20 20v110c0 11.046 8.955 20 20 20zM321.999 397.991h379.999c11.046 0 20-8.955 20-20v-110c0-11.046-8.955-20-20-20h-379.999c-11.046 0-20 8.955-20 20v110c0 11.046 8.955 20 20 20zM321.999 217.992h379.999c11.046 0 20-8.955 20-20v-110c0-11.046-8.955-20-20-20h-379.999c-11.046 0-20 8.955-20 20v110c0 11.045 8.955 20 20 20z" />
<glyph unicode="&#xe923;" glyph-name="battery-black" data-tags="battery-black" d="M460.44 928.008c-28.486 0-103.128-23.893-103.128-53.434v-53.434h-102.174c-56.973 0-103.128-47.787-103.128-106.867v-639.398c0-59.106 46.155-106.867 103.128-106.867h513.757c56.973 0 103.128 47.787 103.128 106.867v639.373c0 59.106-46.155 106.867-103.128 106.867h-102.174v53.434c0 29.54-74.642 53.434-103.128 53.434l-103.153 0.025zM511.992 714.248v-266.24h205.302l-205.302-373.133v266.24h-205.302l205.302 373.133z" />
<glyph unicode="&#xe924;" glyph-name="battery-negative" data-tags="battery-negative" d="M402.012 928.008c-29.992 0-40.006-6.751-40.006-40.006v-29.992h-90.002c-59.106 0-69.998-10.918-69.998-69.998v-750.005c0-59.106 10.918-69.998 69.998-69.998h480c59.106 0 69.998 10.918 69.998 69.998v750.005c0 59.106-10.918 69.998-69.998 69.998h-90.002v29.992c0 33.23-9.989 40.006-40.006 40.006h-219.984zM272.004 717.988c0 80.013-9.989 69.998 69.998 69.998 40.006 0 310.011 0 340.003 0 80.013 0 69.998 9.989 69.998-69.998 0-40.006 0-570.002 0-610.008 0-80.013 9.989-69.998-69.998-69.998-40.006 0-299.997 0-340.003 0-80.013 0-69.998-9.989-69.998 69.998 0 40.031 0 570.027 0 610.008zM341.999 487.991h340c11.046 0 20-8.955 20-20v-100.001c0-11.046-8.955-20-20-20h-340c-11.046 0-20 8.955-20 20v100.001c0 11.046 8.955 20 20 20z" />
<glyph unicode="&#xe925;" glyph-name="battery-positive" data-tags="battery-positive" d="M402.012 928.008c-29.992 0-40.006-6.751-40.006-40.006v-29.992h-90.002c-59.106 0-69.998-10.918-69.998-69.998v-750.005c0-59.106 10.918-69.998 69.998-69.998h480c59.106 0 69.998 10.918 69.998 69.998v750.005c0 59.106-10.918 69.998-69.998 69.998h-90.002v29.992c0 33.23-9.989 40.006-40.006 40.006h-219.984zM272.004 717.988c0 80.013-9.989 69.998 69.998 69.998 40.006 0 310.011 0 340.003 0 80.013 0 69.998 9.989 69.998-69.998 0-40.006 0-570.002 0-610.008 0-80.013 9.989-69.998-69.998-69.998-40.006 0-299.997 0-340.003 0-80.013 0-69.998-9.989-69.998 69.998 0 40.031 0 570.027 0 610.008zM341.999 487.991h340c11.046 0 20-8.955 20-20v-100.001c0-11.046-8.955-20-20-20h-340c-11.046 0-20 8.955-20 20v100.001c0 11.046 8.955 20 20 20zM462 607.992h100.001c11.046 0 20-8.955 20-20v-340c0-11.046-8.955-20-20-20h-100.001c-11.046 0-20 8.955-20 20v340c0 11.045 8.955 20 20 20z" />
<glyph unicode="&#xe926;" glyph-name="battery-white" data-tags="battery-white" d="M452.007 928.008c-49.87 0-90.002-26.755-90.002-60.009v-29.992h-90.002c-59.106 0-119.994-60.913-119.994-119.994v-630.011c0-59.106 60.913-119.994 119.994-119.994h480c59.106 0 119.994 60.913 119.994 119.994v630.011c0 59.106-60.913 119.994-119.994 119.994h-90.002v29.992c0 33.23-40.132 60.009-90.002 60.009h-119.994zM272.004 717.988h480v-630.011h-480v630.011zM511.992 658.004v-209.995h-150.011l150.011-299.997v209.995h150.011l-150.011 299.997z" />
<glyph unicode="&#xe927;" glyph-name="batwings" data-tags="batwings" d="M998.068 876.48c-168.34-35.635-310.788-173.838-379.114-343 99.403-79.366 66.806-218.453-30.93-268.853-21.135 13.908-46.419 22.025-73.609 22.025-27.195 0-52.483-8.118-73.618-22.030-97.739 50.4-130.337 189.49-30.934 268.859-68.326 169.16-210.772 307.364-379.112 342.998 83.338-85.081 105.083-256.885 26.871-349 127.427-21.441 151.153-122.412 128.678-274.532 66.801 41.693 149.033 24.369 199.837-61.226-3.78-12.395-5.83-25.545-5.83-39.176 0-74.064 60.043-134.107 134.107-134.107s134.107 60.043 134.107 134.107c0 13.634-2.050 26.789-5.833 39.186 50.804 85.588 133.033 102.911 199.832 61.218-22.476 152.12 1.25 253.090 128.678 274.532-78.213 92.113-56.469 263.918 26.87 348.999zM554.527 110.62c-43.262 0-78.333 35.072-78.333 78.333s35.072 78.333 78.333 78.333c9.958 0 19.473-1.878 28.236-5.267 0 0 0 0-0.002 0 3.647-1.41 7.161-3.087 10.522-5.003 0.035-0.020 0.070-0.040 0.104-0.060 3.286-1.881 6.421-3.994 9.386-6.316 0.112-0.089 0.226-0.175 0.337-0.266 0.693-0.55 1.38-1.108 2.053-1.679 0.045-0.038 0.089-0.077 0.132-0.115 2.038-1.736 3.982-3.578 5.833-5.511 0.19-0.199 0.383-0.398 0.571-0.598 0.516-0.551 1.024-1.109 1.523-1.674 0.215-0.244 0.428-0.493 0.641-0.74 1.535-1.779 2.988-3.628 4.362-5.543 0.261-0.364 0.523-0.725 0.778-1.094 0.356-0.515 0.703-1.036 1.047-1.56 0.281-0.428 0.556-0.859 0.829-1.293 0.314-0.499 0.63-1.001 0.932-1.507 0.336-0.563 0.66-1.136 0.982-1.707 0.384-0.68 0.757-1.366 1.121-2.058 0.331-0.63 0.66-1.26 0.974-1.899 0.222-0.453 0.434-0.914 0.65-1.371 0.277-0.595 0.55-1.193 0.812-1.796 0.195-0.448 0.389-0.895 0.576-1.348 0.297-0.718 0.58-1.442 0.855-2.17 0.129-0.339 0.266-0.673 0.389-1.014 0.378-1.039 0.73-2.088 1.064-3.147 0.117-0.368 0.222-0.742 0.332-1.113 0.227-0.758 0.446-1.52 0.65-2.289 0.109-0.409 0.215-0.82 0.317-1.233 0.2-0.805 0.386-1.617 0.561-2.432 0.074-0.339 0.152-0.677 0.221-1.017 0.229-1.139 0.436-2.287 0.615-3.445 0.038-0.244 0.065-0.491 0.1-0.737 0.137-0.939 0.257-1.883 0.361-2.833 0.042-0.388 0.079-0.777 0.114-1.166 0.080-0.857 0.145-1.717 0.197-2.583 0.022-0.369 0.048-0.735 0.065-1.106 0.055-1.211 0.092-2.426 0.092-3.65 0-1.051-0.038-2.093-0.079-3.134-0.025-0.566-0.048-1.133-0.084-1.697-2.501-41.005-36.535-73.497-78.173-73.497z" />
<glyph unicode="&#xe928;" glyph-name="beam-wake" data-tags="beam-wake" d="M950.514 252.444c35.787 99.373 23.567 201.818-41.884 267.271-20.502 20.498-45.477 35.89-72.002 46.108 51.227-68.352 53.607-167.477 11.712-260.198 2.588 5.726 5.008 11.476 7.257 17.241l-90.257 66.963c31.48 83.557 21.955 170.32-33.141 225.415-16.975 16.969-37.652 29.718-59.613 38.169 40.542-54.085 44.134-131.451 14.084-205.216l-74.785 55.485c-0.003-0.007-0.005-0.013-0.008-0.020 28.913 71.665 21.753 146.972-25.612 194.333-14.221 14.221-31.54 24.898-49.937 31.983 37.96-50.654 37.247-125.671 1.721-193.599 2.82 5.394 5.422 10.831 7.803 16.297l-73.985 54.892c22.042 55.983 16.16 114.548-20.802 151.517-11.202 11.197-24.848 19.615-39.338 25.199 29.597-39.495 29.328-97.783 2.192-150.855 2.152 4.21 4.139 8.453 5.952 12.716l-75.15 55.755c21.514 46.873 18.181 97.414-13 128.586-8.904 8.887-19.722 15.592-31.238 20.016 23.138-30.87 23.305-76.209 2.748-117.822l-60.892 45.178c-0.007-0.012-0.013-0.023-0.018-0.033 20.772 38.648 19.591 82-6.458 108.053-6.968 6.947-15.449 12.189-24.446 15.666 19.459-25.969 18.158-65.015-1.731-99.46l-59.18 43.903c1.545 5.209 2.387 10.719 2.387 16.429 0 31.879-25.844 57.723-57.722 57.723s-57.722-25.849-57.722-57.723 25.844-57.717 57.722-57.717c5.451 0 10.716 0.772 15.716 2.183l42.694-57.912c-32.775-16.474-68.625-16.493-92.974 1.761l-0.003-0.008c3.466-9.006 8.695-17.488 15.657-24.447 24.626-24.628 64.684-27.008 101.648-9.659-0.117-0.055-0.232-0.117-0.349-0.172l45.996-62.392c-41.052-19.56-85.426-19.033-115.797 3.727l-0.007-0.007c4.437-11.506 11.12-22.343 20.009-31.24 30.693-30.695 80.134-34.375 126.378-13.965l57.040-77.371c2.578 1.164 5.147 2.399 7.704 3.687-52.802-26.627-110.604-26.704-149.85 2.708l-0.005-0.003c5.579-14.5 13.997-28.142 25.196-39.348 37.826-37.826 98.267-43.102 155.416-19.217l53.002-71.892c1.766 0.742 3.526 1.512 5.285 2.299-64.073-28.682-132.445-26.896-179.654 8.481 7.083-18.394 17.76-35.708 31.97-49.924 46.65-46.653 120.404-54.307 191.090-26.903l55.222-74.907c2.404 0.944 4.804 1.923 7.201 2.937-74.869-31.701-153.929-28.674-208.929 12.544 8.453-21.967 21.198-42.639 38.17-59.611 54.252-54.255 139.209-64.332 221.577-34.57l66.66-90.421c2.746 1.031 5.488 2.11 8.225 3.217-88.841-35.925-181.903-31.457-247.033 17.353v-0.005c10.213-26.525 25.607-51.506 46.108-72.004 64.455-64.449 164.775-77.274 262.714-43.477-0.010-0.003-0.022-0.008-0.032-0.012l23.504-31.881h256.548v255.382l-30.755 22.819zM946.966 243.021c-0.15-0.383-0.306-0.765-0.458-1.148 0.152 0.383 0.307 0.765 0.458 1.148zM943.154 233.682c-0.192-0.453-0.381-0.907-0.575-1.36 0.195 0.454 0.384 0.907 0.575 1.36zM934.217 214.125c-0.271-0.551-0.545-1.101-0.819-1.652 0.272 0.55 0.548 1.101 0.819 1.652zM929.303 204.467c-0.177-0.336-0.347-0.673-0.526-1.009 0.177 0.336 0.349 0.673 0.526 1.009zM923.848 194.449c-0.204-0.362-0.418-0.723-0.623-1.086 0.207 0.362 0.419 0.723 0.623 1.086zM918.742 185.674c-0.374-0.628-0.75-1.255-1.129-1.881 0.379 0.626 0.755 1.255 1.129 1.881zM906.594 166.572c-0.424-0.628-0.859-1.255-1.286-1.883 0.429 0.628 0.862 1.253 1.286 1.883zM900.505 157.815c-0.438-0.613-0.87-1.228-1.311-1.839 0.441 0.611 0.874 1.226 1.311 1.839zM893.035 147.652c-0.227-0.299-0.463-0.595-0.692-0.894 0.229 0.299 0.464 0.595 0.692 0.894zM886.664 139.5c-0.583-0.73-1.171-1.458-1.761-2.185 0.59 0.727 1.178 1.455 1.761 2.185zM879.357 130.61c-0.396-0.469-0.783-0.942-1.183-1.412 0.399 0.468 0.787 0.942 1.183 1.412zM774.568 197.143c-2.187-2.289-4.393-4.567-6.647-6.821-2.315-2.315-4.656-4.582-7.008-6.826 2.352 2.243 4.692 4.51 7.006 6.826 2.253 2.253 4.464 4.532 6.648 6.821zM848.126 305.149c-2.578-5.683-5.319-11.341-8.227-16.965 2.908 5.624 5.65 11.284 8.227 16.965zM839.703 287.812c-1.38-2.661-2.798-5.315-4.253-7.961 1.455 2.646 2.873 5.3 4.253 7.961zM835.116 279.237c-3.004-5.441-6.166-10.845-9.482-16.207 3.314 5.362 6.478 10.766 9.482 16.207zM824.898 261.844c-1.574-2.524-3.176-5.040-4.818-7.544 1.642 2.502 3.244 5.018 4.818 7.544zM819.883 253.995c-1.734-2.639-3.51-5.265-5.32-7.88 1.809 2.614 3.587 5.24 5.32 7.88zM813.774 244.991c-1.532-2.195-3.090-4.38-4.676-6.557 1.584 2.177 3.144 4.362 4.676 6.557zM807.998 236.926c-3.663-4.978-7.469-9.904-11.413-14.774 3.944 4.869 7.751 9.796 11.413 14.774zM795.132 220.371c-1.654-2.018-3.331-4.024-5.033-6.020 1.702 1.996 3.379 4.002 5.033 6.020zM789.016 213.073c-2.031-2.362-4.098-4.709-6.196-7.041 2.098 2.332 4.164 4.679 6.196 7.041zM781.486 204.57c-1.714-1.884-3.45-3.759-5.207-5.621 1.757 1.863 3.493 3.737 5.207 5.621zM755.326 366.269c0.027 0.055 0.052 0.109 0.077 0.164-0.025-0.053-0.050-0.109-0.077-0.164zM759.143 181.822c-2.046-1.929-4.104-3.834-6.177-5.71 2.073 1.876 4.131 3.78 6.177 5.71zM751.933 175.17c-2.389-2.147-4.794-4.251-7.216-6.328 2.422 2.076 4.829 4.183 7.216 6.328zM743.070 167.447c-2.016-1.711-4.044-3.396-6.082-5.058 2.038 1.66 4.066 3.348 6.082 5.058zM735.417 161.108c-2.464-1.988-4.941-3.942-7.434-5.858 2.492 1.916 4.97 3.87 7.434 5.858zM726.776 154.336c-2.155-1.644-4.32-3.257-6.496-4.848 2.177 1.59 4.342 3.204 6.496 4.848zM718.496 148.187c-2.559-1.849-5.128-3.672-7.714-5.446 2.586 1.774 5.155 3.598 7.714 5.446zM710.773 142.734c-2.563-1.759-5.14-3.468-7.726-5.153 2.586 1.686 5.163 3.396 7.726 5.153zM701.258 136.422c-2.407-1.55-4.823-3.075-7.248-4.564 2.426 1.488 4.841 3.014 7.248 4.564zM693.402 131.482c-2.654-1.62-5.322-3.197-7.997-4.742 2.676 1.545 5.342 3.12 7.997 4.742zM693.474 276.954c0.531 0.556 1.054 1.116 1.58 1.675-0.528-0.56-1.051-1.119-1.58-1.675zM699.521 283.46c0.498 0.548 0.999 1.094 1.492 1.645-0.493-0.551-0.994-1.098-1.492-1.645zM712.061 298.035c0.423 0.52 0.839 1.041 1.258 1.562-0.419-0.521-0.835-1.042-1.258-1.562zM717.555 304.967c0.359 0.466 0.723 0.929 1.081 1.397-0.357-0.468-0.72-0.93-1.081-1.397zM728.619 320.099c0.271 0.393 0.538 0.787 0.807 1.179-0.269-0.393-0.535-0.787-0.807-1.179zM733.563 327.472c0.19 0.292 0.384 0.583 0.573 0.875-0.189-0.292-0.383-0.583-0.573-0.875zM743.063 342.922c0.129 0.222 0.254 0.443 0.381 0.665-0.127-0.222-0.254-0.444-0.381-0.665zM747.415 350.692c0.045 0.084 0.092 0.169 0.139 0.252-0.047-0.084-0.094-0.169-0.139-0.252zM615.705 342.535c1.817 1.817 3.602 3.655 5.367 5.501-1.766-1.846-3.548-3.683-5.367-5.501-1.866-1.868-3.752-3.697-5.648-5.506 1.896 1.809 3.782 3.64 5.648 5.506zM686.665 448.182c-2.836-6.959-5.97-13.887-9.403-20.759 3.431 6.872 6.567 13.8 9.403 20.759zM677.178 427.254c-3.386-6.772-7.061-13.489-11.022-20.133 3.957 6.643 7.636 13.36 11.022 20.133zM665.809 406.542c-2.616-4.367-5.352-8.703-8.215-12.998 2.863 4.295 5.601 8.63 8.215 12.998zM657.223 392.991c-1.27-1.898-2.564-3.785-3.882-5.666 1.316 1.881 2.613 3.77 3.882 5.666zM652.627 386.308c-2.91-4.121-5.932-8.202-9.071-12.238 3.139 4.036 6.162 8.117 9.071 12.238zM642.696 372.976c-1.283-1.635-2.584-3.262-3.906-4.881 1.321 1.619 2.623 3.246 3.906 4.881zM637.688 366.743c-3.201-3.884-6.508-7.721-9.924-11.508 3.416 3.787 6.724 7.624 9.924 11.508zM626.493 353.842c-1.335-1.463-2.686-2.917-4.053-4.363 1.366 1.447 2.718 2.902 4.053 4.363zM681.13 264.619c-0.555-0.528-1.111-1.049-1.667-1.572 0.556 0.523 1.113 1.046 1.667 1.572zM674.296 258.281c-0.476-0.431-0.949-0.867-1.427-1.293 0.478 0.428 0.95 0.864 1.427 1.293zM666.308 251.253c-0.327-0.279-0.658-0.55-0.987-0.827 0.329 0.277 0.66 0.548 0.987 0.827zM659.598 245.691c-0.575-0.466-1.151-0.93-1.729-1.392 0.578 0.461 1.154 0.925 1.729 1.392zM651.875 239.605c-0.259-0.199-0.516-0.403-0.775-0.6 0.261 0.199 0.516 0.403 0.775 0.6zM644.193 233.892c-0.478-0.344-0.957-0.682-1.435-1.024 0.478 0.342 0.957 0.678 1.435 1.024zM637.042 228.871c-0.53-0.362-1.057-0.727-1.589-1.086 0.531 0.359 1.059 0.723 1.589 1.086zM621.259 218.694c-0.533-0.322-1.067-0.641-1.602-0.962 0.533 0.321 1.067 0.638 1.602 0.962zM606.499 491.27c-0.007-0.013-0.013-0.027-0.020-0.042 0.008 0.013 0.013 0.027 0.020 0.042zM603.672 485.387c-0.097-0.195-0.192-0.389-0.291-0.585 0.097 0.194 0.194 0.389 0.291 0.585zM600.403 478.989c-0.010-0.020-0.022-0.042-0.032-0.062 0.010 0.020 0.020 0.042 0.032 0.062zM593.711 467.058c-0.154-0.259-0.311-0.518-0.466-0.777 0.155 0.259 0.312 0.516 0.466 0.777zM590.23 461.355c-0.217-0.347-0.433-0.693-0.651-1.039 0.217 0.346 0.434 0.693 0.651 1.039zM586.202 455.101c-0.085-0.13-0.169-0.261-0.256-0.389 0.087 0.13 0.17 0.261 0.256 0.389zM582.040 448.992c-0.12-0.172-0.246-0.344-0.368-0.516 0.12 0.172 0.246 0.344 0.368 0.516zM578.182 443.632c-0.352-0.478-0.708-0.954-1.064-1.432 0.356 0.478 0.712 0.954 1.064 1.432zM574.065 438.178c-0.379-0.491-0.757-0.984-1.139-1.473 0.383 0.489 0.76 0.982 1.139 1.473zM569.194 432.034c-0.16-0.197-0.317-0.398-0.478-0.595 0.16 0.197 0.317 0.398 0.478 0.595zM548.807 409.474c-0.007-0.007-0.013-0.013-0.020-0.020-0.005-0.005-0.012-0.012-0.017-0.017 0.005 0.005 0.012 0.012 0.017 0.017 0.007 0.007 0.013 0.013 0.020 0.020zM564.354 426.249c-0.389-0.453-0.787-0.902-1.179-1.353 0.393 0.451 0.79 0.9 1.179 1.353zM559.852 421.137c-0.509-0.568-1.024-1.133-1.54-1.697 0.516 0.565 1.031 1.129 1.54 1.697zM555.043 415.917c-0.489-0.518-0.974-1.039-1.467-1.555 0.493 0.516 0.977 1.037 1.467 1.555zM608.625 335.674c-1.557-1.47-3.124-2.922-4.699-4.355 1.575 1.432 3.142 2.885 4.699 4.355zM602.768 330.263c-1.944-1.752-3.902-3.476-5.872-5.172 1.971 1.696 3.927 3.419 5.872 5.172zM596.052 324.375c-1.712-1.463-3.436-2.903-5.168-4.323 1.732 1.42 3.456 2.862 5.168 4.323zM589.498 318.921c-1.948-1.58-3.906-3.14-5.877-4.667 1.973 1.527 3.929 3.087 5.877 4.667zM583.513 314.167c-2.083-1.612-4.181-3.187-6.288-4.739 2.106 1.552 4.205 3.127 6.288 4.739zM576.139 308.637c-1.809-1.321-3.627-2.619-5.452-3.896 1.827 1.276 3.643 2.576 5.452 3.896zM569.7 304.050c-4.271-2.962-8.583-5.798-12.931-8.514 4.348 2.715 8.661 5.553 12.931 8.514zM555.768 294.913c-2.133-1.321-4.273-2.621-6.423-3.882 2.15 1.261 4.29 2.561 6.423 3.882zM549.313 291.011c-2.292-1.345-4.592-2.654-6.901-3.932 2.309 1.278 4.611 2.588 6.901 3.932zM493.028 474.011c-1.432-1.495-2.877-2.982-4.35-4.455-1.507-1.507-3.029-2.983-4.559-4.447 1.528 1.463 3.050 2.942 4.557 4.448 1.473 1.473 2.92 2.958 4.352 4.453zM537.942 536.173c-2.805-5.352-5.825-10.659-9.061-15.908 3.234 5.247 6.256 10.556 9.061 15.908zM528.663 519.912c-0.986-1.594-1.991-3.181-3.017-4.761 1.024 1.582 2.031 3.169 3.017 4.761zM525.292 514.603c-3.304-5.072-6.812-10.081-10.522-15.016 3.708 4.935 7.218 9.944 10.522 15.016zM514.096 498.699c-1.022-1.348-2.060-2.689-3.11-4.026 1.052 1.336 2.090 2.678 3.11 4.026zM510.288 493.786c-2.541-3.201-5.167-6.368-7.881-9.493 2.715 3.125 5.341 6.293 7.881 9.493zM501.73 483.521c-1.109-1.268-2.232-2.531-3.369-3.785 1.136 1.256 2.26 2.517 3.369 3.785zM497.285 478.56c-1.084-1.183-2.183-2.36-3.293-3.53 1.109 1.169 2.208 2.347 3.293 3.53zM543.754 404.548c-0.513-0.489-1.029-0.971-1.544-1.455 0.515 0.484 1.031 0.966 1.544 1.455zM538.509 399.665c-0.545-0.496-1.089-0.992-1.635-1.483 0.546 0.489 1.091 0.987 1.635 1.483zM532.468 394.306c-0.271-0.234-0.538-0.474-0.81-0.707 0.272 0.234 0.54 0.473 0.81 0.707zM526.398 389.204c-0.486-0.398-0.976-0.785-1.463-1.179 0.486 0.394 0.977 0.782 1.463 1.179zM520.952 384.869c-0.563-0.439-1.128-0.875-1.692-1.31 0.565 0.433 1.129 0.87 1.692 1.31zM514.957 380.324c-0.386-0.284-0.768-0.576-1.154-0.859 0.386 0.282 0.768 0.573 1.154 0.859zM508.298 375.543c-0.388-0.271-0.78-0.531-1.169-0.798 0.389 0.267 0.78 0.53 1.169 0.798zM502.684 371.746c-0.548-0.362-1.098-0.722-1.649-1.079 0.551 0.357 1.101 0.717 1.649 1.079zM496.657 367.876c-0.436-0.272-0.869-0.55-1.305-0.819 0.436 0.269 0.87 0.546 1.305 0.819zM489.607 363.599c-0.185-0.109-0.371-0.212-0.556-0.319 0.184 0.109 0.371 0.212 0.556 0.319zM469.794 602.509c0.018 0.042 0.035 0.084 0.053 0.125-0.018-0.042-0.035-0.084-0.053-0.125zM483.042 464.088c-1.199-1.136-2.407-2.26-3.62-3.369 1.213 1.109 2.419 2.232 3.62 3.369zM478.248 459.647c-1.442-1.305-2.892-2.593-4.35-3.859 1.458 1.266 2.908 2.554 4.35 3.859zM473.601 455.527c-1.592-1.378-3.196-2.73-4.808-4.064 1.612 1.335 3.216 2.686 4.808 4.064zM467.791 450.646c-1.275-1.044-2.552-2.073-3.839-3.089 1.286 1.014 2.566 2.045 3.839 3.089zM462.681 446.557c-1.37-1.071-2.746-2.125-4.129-3.164 1.383 1.039 2.76 2.095 4.129 3.164zM457.832 442.848c-1.657-1.236-3.324-2.451-4.998-3.642 1.674 1.191 3.341 2.404 4.998 3.642zM452.109 438.697c-1.413-0.999-2.83-1.98-4.253-2.945 1.423 0.966 2.841 1.948 4.253 2.945zM446.609 434.914c-1.376-0.924-2.76-1.833-4.146-2.725 1.388 0.892 2.77 1.801 4.146 2.725zM441.561 431.603c-1.729-1.104-3.465-2.188-5.207-3.246 1.742 1.057 3.476 2.142 5.207 3.246zM436.256 428.298c-1.657-1.006-3.323-1.983-4.991-2.945 1.669 0.962 3.334 1.941 4.991 2.945zM430.147 424.715c-1.427-0.814-2.855-1.61-4.288-2.392 1.433 0.782 2.863 1.58 4.288 2.392zM424.892 421.795c-3.508-1.894-7.036-3.695-10.581-5.402 3.545 1.707 7.073 3.508 10.581 5.402zM425.414 535.75c0.336 0.352 0.667 0.707 1.001 1.061-0.332-0.352-0.663-0.708-1.001-1.061zM429.241 539.859c0.352 0.388 0.705 0.773 1.054 1.163-0.349-0.389-0.702-0.775-1.054-1.163zM433.367 544.508c0.174 0.202 0.352 0.403 0.526 0.605-0.172-0.202-0.352-0.403-0.526-0.605zM437.442 549.349c0.194 0.237 0.383 0.476 0.575 0.715-0.192-0.239-0.381-0.478-0.575-0.715zM440.845 553.619c0.277 0.356 0.553 0.713 0.827 1.069-0.274-0.356-0.55-0.713-0.827-1.069zM444.354 558.243c0.189 0.254 0.379 0.508 0.566 0.763-0.185-0.254-0.378-0.508-0.566-0.763zM451.165 567.967c0.157 0.239 0.312 0.478 0.469 0.717-0.157-0.239-0.312-0.478-0.469-0.717zM454.175 572.647c0.135 0.215 0.271 0.429 0.404 0.645-0.132-0.215-0.269-0.429-0.404-0.645zM460.135 582.74c0.010 0.018 0.020 0.038 0.032 0.057-0.010-0.018-0.022-0.037-0.032-0.057zM462.673 587.461c0.070 0.135 0.14 0.271 0.212 0.406-0.072-0.135-0.142-0.271-0.212-0.406zM374.325 579.257c-0.045-0.045-0.087-0.092-0.132-0.137-0.042-0.042-0.085-0.080-0.127-0.122 0.042 0.042 0.085 0.082 0.127 0.124 0.045 0.045 0.087 0.090 0.132 0.135zM413.496 632.602c-2.023-3.912-4.193-7.794-6.508-11.638 2.314 3.845 4.489 7.726 6.508 11.638zM405.755 618.938c-0.667-1.079-1.333-2.158-2.023-3.231 0.69 1.072 1.358 2.152 2.023 3.231zM400.755 611.199c-0.59-0.869-1.198-1.731-1.802-2.594 0.605 0.864 1.213 1.726 1.802 2.594zM396.624 605.345c-0.526-0.723-1.046-1.448-1.584-2.168 0.538 0.72 1.057 1.445 1.584 2.168zM391.211 598.217c-0.491-0.618-0.991-1.233-1.49-1.848 0.499 0.615 1.001 1.229 1.49 1.848zM386.113 592.032c-0.307-0.359-0.603-0.722-0.914-1.079 0.311 0.357 0.608 0.722 0.914 1.079zM380.557 585.769c-0.436-0.473-0.875-0.944-1.316-1.413 0.441 0.471 0.88 0.94 1.316 1.413zM417.697 528.024c-0.342-0.327-0.687-0.646-1.031-0.972 0.342 0.326 0.688 0.645 1.031 0.972zM413.793 524.379c-0.408-0.373-0.817-0.743-1.226-1.113 0.409 0.369 0.819 0.74 1.226 1.113zM409.694 520.721c-0.368-0.321-0.733-0.643-1.101-0.961 0.369 0.317 0.735 0.64 1.101 0.961zM404.919 516.658c-0.1-0.082-0.197-0.167-0.297-0.249 0.099 0.080 0.197 0.165 0.297 0.249zM400.422 513.032c-0.177-0.139-0.356-0.274-0.533-0.413 0.177 0.139 0.356 0.272 0.533 0.413zM396.27 509.849c-0.312-0.234-0.626-0.466-0.94-0.698 0.314 0.232 0.628 0.464 0.94 0.698zM391.93 506.677c-0.282-0.2-0.563-0.403-0.845-0.603 0.282 0.199 0.563 0.401 0.845 0.603zM387.020 503.264c-0.042-0.028-0.084-0.058-0.125-0.087 0.042 0.028 0.084 0.058 0.125 0.087zM377.889 497.421c-0.102-0.062-0.202-0.122-0.304-0.182 0.1 0.062 0.202 0.12 0.304 0.182zM341.55 695.39c-0.334-0.651-0.695-1.295-1.039-1.944 0.344 0.65 0.707 1.295 1.039 1.944zM338.064 688.947c-0.444-0.783-0.914-1.56-1.373-2.34 0.459 0.78 0.929 1.557 1.373 2.34zM334.252 682.566c-0.515-0.824-1.046-1.64-1.577-2.459 0.531 0.819 1.062 1.635 1.577 2.459zM330.111 676.257c-0.566-0.825-1.141-1.649-1.724-2.469 0.583 0.82 1.158 1.642 1.724 2.469zM325.622 670.009c-0.6-0.798-1.198-1.597-1.812-2.39 0.616 0.793 1.214 1.592 1.812 2.39zM320.746 663.797c-0.603-0.735-1.194-1.475-1.811-2.203 0.616 0.73 1.209 1.468 1.811 2.203zM315.329 657.479c-0.526-0.586-1.034-1.183-1.57-1.766 0.536 0.583 1.044 1.179 1.57 1.766zM308.157 649.868c-1.532-1.528-3.085-3.014-4.652-4.474 1.567 1.462 3.12 2.945 4.652 4.474zM300.274 726.994c1.007 1.851 1.976 3.708 2.9 5.576-0.924-1.868-1.893-3.725-2.9-5.576zM302.538 644.491c-1.5-1.38-3.017-2.726-4.545-4.043 1.528 1.318 3.045 2.663 4.545 4.043zM296.711 639.359c-1.495-1.263-2.998-2.507-4.519-3.712 1.52 1.206 3.024 2.447 4.519 3.712zM290.819 634.583c-1.161-0.902-2.329-1.787-3.503-2.656 1.173 0.869 2.342 1.752 3.503 2.656zM285.357 630.487c-1.265-0.909-2.537-1.794-3.815-2.664 1.278 0.872 2.552 1.754 3.815 2.664zM279.111 626.194c-0.945-0.62-1.894-1.224-2.845-1.824 0.949 0.6 1.899 1.204 2.845 1.824zM272.456 622.037c-0.506-0.301-1.014-0.598-1.523-0.894 0.509 0.296 1.017 0.591 1.523 0.894zM271.061 687.978c1.51 1.518 2.987 3.055 4.425 4.611-1.438-1.557-2.915-3.092-4.425-4.611zM276.984 694.259c1.049 1.163 2.095 2.327 3.104 3.508-1.011-1.181-2.055-2.345-3.104-3.508zM281.628 699.62c0.957 1.153 1.909 2.307 2.831 3.475-0.922-1.169-1.873-2.324-2.831-3.475zM285.893 704.949c0.92 1.199 1.831 2.404 2.713 3.618-0.884-1.213-1.792-2.417-2.713-3.618zM289.871 710.339c0.905 1.28 1.792 2.566 2.656 3.86-0.864-1.295-1.749-2.581-2.656-3.86zM293.589 715.809c0.907 1.393 1.787 2.795 2.644 4.201-0.857-1.407-1.737-2.808-2.644-4.201zM297.057 721.363c0.93 1.56 1.827 3.127 2.698 4.702-0.872-1.575-1.767-3.144-2.698-4.702zM270.388 687.302c-1.594-1.587-3.209-3.132-4.841-4.641 1.634 1.507 3.249 3.054 4.841 4.641zM263.833 681.123c-1.198-1.077-2.399-2.147-3.617-3.184 1.216 1.037 2.419 2.106 3.617 3.184zM258.322 676.364c-1.203-0.997-2.412-1.978-3.633-2.935 1.221 0.957 2.431 1.939 3.633 2.935zM252.858 672.015c-1.31-0.999-2.628-1.973-3.954-2.927 1.326 0.952 2.644 1.928 3.954 2.927zM247.34 667.971c-1.55-1.087-3.112-2.142-4.682-3.167 1.57 1.024 3.13 2.080 4.682 3.167zM239.955 773.609c-0.050-0.087-0.102-0.174-0.154-0.261 0.052 0.087 0.102 0.174 0.154 0.261zM237.376 769.372c-0.114-0.179-0.229-0.357-0.344-0.536 0.114 0.179 0.231 0.357 0.344 0.536zM234.605 765.168c-0.2-0.292-0.406-0.581-0.61-0.872 0.202 0.289 0.409 0.58 0.61 0.872zM231.629 760.99c-0.316-0.428-0.646-0.85-0.969-1.276 0.324 0.426 0.653 0.849 0.969 1.276zM228.447 756.847c-0.481-0.605-0.986-1.199-1.478-1.797 0.494 0.598 0.996 1.193 1.478 1.797zM208.081 799.404c0.54 0.884 1.079 1.767 1.594 2.658-0.515-0.89-1.056-1.774-1.594-2.658zM208.55 736.387c-0.605-0.511-1.218-1.001-1.826-1.5 0.608 0.499 1.223 0.989 1.826 1.5zM203.85 732.578c-0.605-0.469-1.216-0.924-1.824-1.381 0.608 0.458 1.219 0.91 1.824 1.381zM199.015 728.987c-0.583-0.414-1.168-0.82-1.754-1.223 0.586 0.403 1.173 0.809 1.754 1.223zM194.044 725.609c-0.538-0.349-1.077-0.697-1.619-1.036 0.541 0.341 1.081 0.687 1.619 1.036zM188.917 722.439c-0.468-0.274-0.932-0.553-1.402-0.822 0.468 0.269 0.934 0.548 1.402 0.822zM191.503 777.584c0.336 0.361 0.658 0.728 0.989 1.091-0.331-0.364-0.651-0.732-0.989-1.091zM194.714 781.154c0.434 0.499 0.855 1.004 1.28 1.508-0.426-0.504-0.845-1.009-1.28-1.508zM197.751 784.774c0.471 0.581 0.932 1.168 1.392 1.752-0.459-0.585-0.919-1.171-1.392-1.752zM200.617 788.437c0.488 0.646 0.969 1.295 1.443 1.944-0.474-0.65-0.956-1.298-1.443-1.944zM203.303 792.122c0.499 0.71 0.996 1.42 1.478 2.135-0.483-0.715-0.979-1.427-1.478-2.135zM205.804 795.804c0.511 0.78 1.021 1.559 1.512 2.345-0.491-0.787-1.001-1.565-1.512-2.345zM157.975 751.289c-1.425-0.788-2.857-1.545-4.296-2.27 1.438 0.725 2.87 1.483 4.296 2.27zM187.542 773.515c-1.096-1.084-2.2-2.152-3.319-3.189 1.119 1.036 2.223 2.105 3.319 3.189zM182.975 769.209c-0.919-0.832-1.841-1.66-2.775-2.461 0.935 0.8 1.856 1.629 2.775 2.461zM178.941 765.699c-0.957-0.8-1.916-1.594-2.887-2.362 0.972 0.768 1.931 1.564 2.887 2.362zM174.904 762.45c-1.032-0.798-2.068-1.584-3.114-2.347 1.046 0.76 2.081 1.549 3.114 2.347zM170.794 759.391c-1.123-0.803-2.25-1.587-3.388-2.349 1.138 0.76 2.265 1.547 3.388 2.349zM166.608 756.515c-1.223-0.807-2.454-1.589-3.692-2.347 1.238 0.758 2.469 1.542 3.692 2.347zM162.335 753.814c-1.326-0.803-2.661-1.577-4.002-2.324 1.341 0.747 2.674 1.522 4.002 2.324zM183.593 719.464c-0.356-0.187-0.708-0.384-1.064-0.568 0.356 0.184 0.71 0.379 1.064 0.568zM216.741 743.876c0.256 0.251 0.518 0.488 0.772 0.742 1.335 1.333 2.634 2.686 3.904 4.054-1.268-1.368-2.566-2.721-3.902-4.056-0.254-0.254-0.518-0.488-0.773-0.74zM211.422 738.905c0.565 0.504 1.138 0.992 1.697 1.508-0.56-0.516-1.131-1.004-1.697-1.508zM225.044 752.738c-0.753-0.877-1.537-1.739-2.317-2.604 0.78 0.865 1.564 1.729 2.317 2.604zM241.744 664.201c-5.935-3.824-12.002-7.2-18.145-10.13 6.142 2.93 12.209 6.311 18.145 10.13zM265.37 618.041c-0.269-0.144-0.536-0.289-0.805-0.429 0.269 0.14 0.536 0.286 0.805 0.429zM326.315 542.829c-1.985-1.106-3.976-2.173-5.977-3.204 2.001 1.031 3.992 2.1 5.977 3.204zM368.939 574.054c-0.414-0.389-0.829-0.78-1.246-1.164 0.418 0.386 0.83 0.777 1.246 1.164zM362.61 568.336c-0.464-0.404-0.934-0.797-1.4-1.196 0.466 0.399 0.935 0.792 1.4 1.196zM356.826 563.493c-0.431-0.349-0.859-0.708-1.291-1.052 0.433 0.346 0.86 0.703 1.291 1.052zM350.627 558.652c-0.705-0.531-1.412-1.057-2.12-1.577 0.708 0.52 1.415 1.047 2.12 1.577zM343.805 553.714c-0.819-0.568-1.644-1.116-2.467-1.669 0.824 0.553 1.649 1.103 2.467 1.669zM338.413 550.113c-1.385-0.9-2.776-1.777-4.173-2.638 1.397 0.86 2.788 1.741 4.173 2.638zM331.425 545.761c-1.098-0.653-2.197-1.291-3.299-1.919 1.103 0.628 2.202 1.268 3.299 1.919zM354.391 485.079c-0.003-0.002-0.007-0.003-0.008-0.003 0.003 0.002 0.005 0.003 0.008 0.003zM373.371 494.758c-0.132-0.075-0.264-0.152-0.394-0.226 0.13 0.074 0.262 0.15 0.394 0.226zM413.405 415.962c-1.498-0.715-2.998-1.412-4.504-2.093 1.505 0.682 3.005 1.38 4.504 2.093zM458.578 348.027c-0.453-0.192-0.905-0.386-1.36-0.575 0.454 0.19 0.907 0.384 1.36 0.575zM483.864 360.342c-0.504-0.279-1.009-0.553-1.513-0.829 0.504 0.276 1.011 0.55 1.513 0.829zM477.794 357.086c-0.448-0.234-0.895-0.469-1.343-0.7 0.449 0.229 0.895 0.466 1.343 0.7zM464.645 350.682c-0.431-0.195-0.864-0.386-1.295-0.578 0.431 0.192 0.864 0.383 1.295 0.578zM520.623 276.125c-2.274-1.031-4.552-2.035-6.834-3 2.282 0.966 4.56 1.969 6.834 3zM542.033 286.871c-2.133-1.178-4.273-2.322-6.418-3.441 2.145 1.119 4.285 2.263 6.418 3.441zM534.946 283.079c-4.56-2.364-9.148-4.597-13.755-6.697 4.607 2.1 9.194 4.333 13.755 6.697zM573.514 194.877c-0.446-0.177-0.892-0.357-1.338-0.533 0.446 0.175 0.89 0.356 1.338 0.533zM613.521 214.149c-0.383-0.217-0.763-0.441-1.146-0.656 0.383 0.215 0.763 0.439 1.146 0.656zM604.999 209.451c-0.264-0.14-0.53-0.274-0.795-0.414 0.266 0.14 0.531 0.274 0.795 0.414zM597.64 205.673c-0.515-0.256-1.027-0.513-1.544-0.765 0.515 0.252 1.029 0.509 1.544 0.765zM588.914 201.475c-0.040-0.018-0.080-0.038-0.122-0.057 0.040 0.018 0.082 0.038 0.122 0.057zM581.198 198.047c-0.416-0.179-0.832-0.351-1.248-0.526 0.414 0.175 0.832 0.347 1.248 0.526zM657.585 112.186c-5.486-2.579-10.997-5-16.524-7.267 5.528 2.267 11.038 4.689 16.524 7.267zM683.82 125.834c-2.312-1.32-4.629-2.614-6.953-3.877 2.324 1.263 4.641 2.556 6.953 3.877zM675.596 121.262c-2.708-1.458-5.422-2.878-8.145-4.26 2.723 1.381 5.439 2.801 8.145 4.26zM666.353 116.455c-2.4-1.208-4.806-2.382-7.216-3.53 2.41 1.148 4.818 2.324 7.216 3.53zM711.47 9.837c-0.125-0.047-0.251-0.094-0.374-0.14 0.125 0.047 0.249 0.092 0.374 0.14zM761.482 33.103c-0.197-0.109-0.393-0.214-0.59-0.322 0.195 0.109 0.394 0.214 0.59 0.322zM752.017 28.025c-0.334-0.174-0.668-0.351-1.004-0.523 0.336 0.172 0.67 0.349 1.004 0.523zM731.878 18.277c-0.284-0.127-0.568-0.254-0.852-0.381 0.284 0.127 0.568 0.254 0.852 0.381zM854.576 103.639c0.005 0.005 0.008 0.008 0.013 0.012 0.005 0.005 0.008 0.008 0.013 0.013-0.005-0.005-0.008-0.010-0.013-0.013-0.003-0.005-0.008-0.008-0.013-0.012zM770.893 38.497c0.256 0.15 0.509 0.307 0.763 0.458-0.254-0.15-0.508-0.307-0.763-0.458zM779.961 44.029c0.501 0.314 1.004 0.626 1.505 0.944-0.503-0.317-1.004-0.63-1.505-0.944zM799.118 56.805c0.628 0.444 1.255 0.892 1.879 1.34-0.625-0.448-1.251-0.895-1.879-1.34zM808.823 63.881c0.269 0.202 0.54 0.398 0.807 0.6-0.269-0.202-0.54-0.398-0.807-0.6zM818.049 71.023c0.633 0.503 1.261 1.016 1.893 1.523-0.631-0.508-1.26-1.021-1.893-1.523zM826.704 78.107c0.611 0.513 1.224 1.021 1.834 1.539-0.608-0.518-1.223-1.026-1.834-1.539zM836.586 86.647c0.488 0.436 0.971 0.884 1.458 1.323-0.488-0.439-0.971-0.887-1.458-1.323zM844.653 94.050c0.717 0.673 1.433 1.345 2.147 2.025-0.713-0.68-1.43-1.353-2.147-2.025zM871.319 121.349c-0.558-0.625-1.129-1.243-1.692-1.866 0.563 0.623 1.133 1.243 1.692 1.866zM864.027 113.413c-0.68-0.723-1.356-1.445-2.041-2.165 0.685 0.72 1.361 1.443 2.041 2.165z" />
<glyph unicode="&#xe929;" glyph-name="bear-trap" data-tags="bear-trap" d="M985.065 395.063l-2.093 19.261v38.81l-0.735-2.345c-0.91 6.687-2.694 13.2-5.346 19.493l-14.227 130.912-28.283-84.050c-12.268 7.786-26.819 14.587-43.536 20.216l-34.084 135.706-27.7-121.888c-22.742 2.995-47.866 4.387-75.305 3.911l-33.55 113.861-30.947-118.077c-22.565-2.472-46.331-6.049-71.267-10.831l-30.381 71.648-30.596-85.213c-9.908-2.497-19.954-5.15-30.174-8.005v-5.776c-3.445 0.758-7.019 1.171-10.691 1.171-2.594 0-5.142-0.202-7.629-0.586l1.909 11.045c-8.88 4.22-17.634 8.225-26.302 12.096l-9.969 93.653-48.866-69.356c-23.799 9.004-46.648 16.618-68.503 22.934l-7.253 117.033-55.476-101.832c-27.334 5.26-52.663 8.234-75.863 9.166l-6.54 124.824-56.696-127.92c-17.431-2.699-32.928-6.924-46.342-12.507l-13.556 87.638-36.313-126.577c-3.685-5.75-6.55-11.864-8.588-18.298l-0.326 2.436-6.608-38.244-5.342-18.622 2.36 1.37-14.717-85.161c-12.924-85.134 111.933-189.939 411.346-282.054 10.945-11.329 26.283-18.385 43.277-18.385 18.84 0 35.651 8.663 46.688 22.216v-16.588c312.664 39.649 454.362 121.898 456.131 208.246v86.424l2.093-1.752zM477.010 216.803c-7.267-0.374-14.191-2.041-20.552-4.769l0.312 1.811c-9.213 2.823-18.238 5.686-27.115 8.58l-7.659 80.388-50.325-60.142c-24.524 9.171-47.567 18.602-69.134 28.233l-5.105 135.32-57.879-104.503c-22.334 11.999-42.597 24.18-60.872 36.423l-8.028 156.286-49.688-111.736c-20.193 18.245-36.107 36.311-47.953 53.808l5.686 50.158c69.914 37.477 210.623 31.888 401.061-55.832 1.236-1.34 2.549-2.606 3.926-3.804-59.569-1.281-104.283-21.562-104.283-49.747 0-28.816 46.75-56.14 108.322-65.503l-10.714-94.97zM886.497 312.59l-29.935 118.569-34.527-152.641c-19.922-8.877-41.762-17.358-65.576-25.319l-33.618 104.959-33.014-124.472c-22.8-5.823-47.009-11.206-72.634-16.078l-36.532 73.426-24.895-83.699c-9.48-1.38-19.109-2.699-28.924-3.944v-8.72c-6.568 8.067-15.186 14.389-25.060 18.195l10.851 96.191c71.947-4.833 130.013 17.029 130.013 49.135 0 27.22-41.708 53.119-98.227 63.797 200.819 52.939 339.258 34.425 401.431-14.147l-2.937-50.393c-14.653-15.225-33.411-30.317-56.417-44.857z" />
<glyph unicode="&#xe92a;" glyph-name="beer" data-tags="beer" d="M256.476 112.247l-51.537-107.741h772.164l-60.127 107.741h-37.078c-34.667 192.253-60.571 421.384-43.245 558.006 45.378 4.233 78.355 43.989 75.671 102.23-4.153 88.816-103.384 123.075-182.424 69.714-33.737 45.946-96.682 57.982-132.793 18.769-55.907 70.479-167.799 57.023-198.519-25.473-64.594 14.306-113.198-16.364-114.016-76.421-0.812-59.701 36.353-80.859 80.378-76.508 1.233-10.385 2.238-21.581 3.017-33.498-80.821 1.774-159.854 16.12-237.737 38.571-54.746-167.084-78.739-337.641-72.694-511.591 84.952-37.009 175.271-36.244 265.533-35.888-1.983-9.433-4.017-18.751-6.112-27.912h-60.481zM128.88 226.629c-4.652 133.539 13.805 242.878 55.904 373.484l0.003-0.002c60.662-14.438 122.232-18.043 185.217-13.907 0.558-107.742-11.62-248.513-33.72-376.742-70.479-3.8-141.066-8.399-207.404 17.166z" />
<glyph unicode="&#xe92b;" glyph-name="beetle" data-tags="beetle" d="M932.124 295.843l42.757 2.76c-22.189 17.458-43.391 32.123-61.652 72.499-11.077 50.909-28.443 98.805-107.241 114.807 3.561-5.128 6.867-10.303 9.989-15.502-17.112 6.228-34.861 6.231-53.153 0.961 0.005 0.862 0.023 1.721 0.023 2.584 0 37.881-4.497 74.324-12.779 108.414 30.536-5.295 57.025 0.028 78.303 19.028-0.825-6.308-1.848-12.741-3.097-19.306 56.46 40.24 65.474 76.058 63.506 111.377 7.196 43.715 23.879 63.368 40.79 85.973l-48.536-9.709c0.546 22.374 6.692 45.607 26.771 70.598-142.268-10.744-71.072-78.754-76.892-209.793l-87.884-22.61c-24.302 78.432-69.306 141.999-125.656 178.009 3.324 2.324 6.448 4.764 9.386 7.297 13.040-13.631 31.395-22.134 51.748-22.134 39.557 0 71.625 32.065 71.625 71.623 0 39.562-32.068 71.627-71.625 71.627-17.729 0-33.942-6.456-46.451-17.127-25.692 25.426-70.542 42.286-121.614 42.286-51.060 0-95.899-16.85-121.594-42.265-12.505 10.659-28.709 17.106-46.427 17.106-39.557 0-71.625-32.068-71.625-71.627s32.068-71.623 71.625-71.623c20.341 0 38.69 8.494 51.728 22.112 2.935-2.527 6.055-4.963 9.373-7.282-56.432-36.066-101.478-99.771-125.752-178.365l-89.297 22.974c-5.82 131.039 65.376 199.049-76.892 209.793 19.962-24.843 26.148-47.951 26.758-70.205l-46.574 9.316c15.906-21.265 31.615-39.913 39.413-78.44-3.587-37.778 2.459-75.808 62.935-118.909-1.25 6.565-2.27 13-3.097 19.307 21.646-19.331 48.691-24.491 79.897-18.733-8.329-34.175-12.849-70.721-12.849-108.713 0-1.014 0.022-2.021 0.028-3.034-18.83 5.716-37.091 5.89-54.678-0.509 3.122 5.199 6.428 10.372 9.989 15.5-81.868-16.625-97.424-67.679-108.511-120.77-17.613-35.912-37.784-49.964-58.846-66.535l41.257-2.663c-9.375-23.502-24.157-44.102-51.392-58.107 133.031-47.582 95.364 77.238 151.064 201.066l72.438-0.723c3.68-48.649 14.787-94.29 31.742-134.784-34.569-9.555-58.999-27.361-69.883-56.193-45.044-46.489-24.559-76.907 15.221-114.516 13.163-38.155 8.815-62.464 5.623-89.193l39.602 34.793c7.013-29.106 3.476-50.034 0.768-72.706l43.414 38.147c13.937-17.48 26.851-37.073 37.397-59.459 45.619 136.164-94.848 153.5-121.829 241.794l58.664 57.506c45.216-92.791 122.528-153.959 210.319-153.959 87.473 0 164.547 60.722 209.83 152.947l57.631-56.494c-26.983-88.293-167.448-105.631-121.829-241.794 10.372 22.015 23.036 41.328 36.707 58.589l42.425-37.277c-2.706 22.673-6.244 43.601 0.77 72.707l39.602-34.793c-3.127 26.186-7.363 50.047 4.841 86.88 41.378 38.686 63.645 69.391 17.682 116.83-10.741 28.453-34.659 46.182-68.513 55.826 17.044 40.589 28.204 86.365 31.894 135.166l70.917 0.708c55.7-123.829 18.033-248.648 151.064-201.066-27.197 13.985-41.976 34.547-51.354 58.009zM352.69 347.772l-20.59 302.529 46.030 15.866-25.44-318.396zM433.164 238.598l-20.296 445.804 45.37 23.373-25.074-469.177zM594.834 238.598l-25.074 469.176 45.37-23.373-20.296-445.802zM649.866 666.167l46.030-15.866-20.59-302.529-25.44 318.396z" />
<glyph unicode="&#xe92c;" glyph-name="bell" data-tags="bell" d="M852.913 924.003h-83.966l8.461-75.49h-525.21l8.438 75.285h-83.956l-155.097-691.514v-255.379h132.936l91.557 816.973h257.196v-80.609c-14.81-4.816-25.521-18.726-25.521-35.14 0-1.565 0.109-3.104 0.297-4.617-73.267-17.458-104.789-89.723-143.064-232.623l0.003-0.002c-37.442-139.79-96.687-126.343-96.675-218.349 0.008-49.832 109.747-81.432 238.425-86.982-1.712-4.899-2.654-10.161-2.654-15.646 0.003-26.18 21.233-47.405 47.418-47.408s47.406 21.215 47.403 47.393c0 5.621-0.986 11.010-2.781 16.011 125.304 6.416 230.664 37.704 230.657 86.559-0.015 91.996-59.25 78.567-96.739 218.368-39.248 146.375-71.394 218.637-148.548 233.829 0.107 1.141 0.167 2.297 0.167 3.466 0 15.452-9.488 28.682-22.954 34.2v81.549h254.826l91.537-816.769h132.938v255.384l-155.092 691.511z" />
<glyph unicode="&#xe92d;" glyph-name="biohazard" data-tags="biohazard" d="M514.317 676.97c-129.113 0-233.766-104.68-233.766-233.796s104.663-233.783 233.766-233.783 233.756 104.667 233.756 233.783c0 129.129-104.643 233.796-233.756 233.796zM518.722 367.654c-44.059 0-79.77 35.715-79.77 79.778s35.711 79.772 79.77 79.772 79.77-35.715 79.77-79.772c0-44.064-35.711-79.778-79.77-79.778zM546.21 367.174c-0.336 1.662-0.687 3.323-1.056 4.981-8.274-2.905-17.164-4.502-26.432-4.502-44.059 0-79.77 35.715-79.77 79.778 0 24.219 10.803 45.896 27.835 60.525-1.273 1.169-2.556 2.324-3.849 3.465-17.64-15.567-28.779-38.331-28.779-63.712 0-46.932 38.035-84.97 84.962-84.97 9.477-0.002 18.579 1.574 27.088 4.435zM514.431 194.175c-24.113 0-47.421 3.441-69.473 9.836-17.684-46.9-51.093-88.204-97.921-115.244-33.617-19.411-70.375-28.563-106.625-29.499 59.43-11.327 123.59-3.471 180.094 29.173 44.79 25.864 79.040 63.040 101.249 105.85-2.434-0.070-4.873-0.115-7.323-0.115zM304.136 576.526c-49.165 2.803-99.652-8.192-145.415-34.619-56.444-32.588-96.044-83.186-115.969-140.251 18.936 30.929 45.91 57.045 79.518 76.456 47.508 27.431 100.825 35.558 150.904 26.826 6.557 25.695 17.114 49.79 30.962 71.588zM585.177 204.39c-22.428-6.637-46.167-10.215-70.746-10.215-1.969 0-3.932 0.028-5.89 0.075 22.206-42.811 56.462-79.987 101.256-105.851 56.499-32.644 120.663-40.501 180.097-29.173-36.266 0.93-73.020 10.083-106.628 29.494-46.97 27.123-80.445 68.596-98.089 115.67zM598.49 447.434c0-44.064-35.711-79.778-79.77-79.778-11.757 0-22.909 2.564-32.957 7.131-0.371-1.585-0.722-3.174-1.061-4.763 10.524-4.671 22.164-7.287 34.42-7.287 46.927 0 84.962 38.040 84.962 84.97 0 27.257-12.849 51.497-32.805 67.044-1.463-1.239-2.918-2.494-4.357-3.769 19.177-14.567 31.567-37.607 31.567-63.55zM871.561 541.852c-46.177 26.667-97.165 37.612-146.749 34.53 13.853-21.841 24.401-45.986 30.937-71.733 50.475 9.122 104.328 1.104 152.269-26.579 33.61-19.421 60.576-45.537 79.51-76.471-19.922 57.067-59.522 107.665-115.966 140.253zM686.207 623.433c18.841-17.966 34.863-38.857 47.35-61.944 27.636 41.493 43.761 91.285 43.761 144.797-0.002 65.254-25.263 124.768-64.783 170.577 17.308-31.874 27.762-68.289 27.762-107.106 0-55.904-20.371-107.011-54.090-146.323zM343.892 624.584c-33.134 39.158-53.116 89.81-53.116 145.172 0 38.822 9.129 75.236 26.442 107.106-39.448-45.794-63.461-105.392-63.461-170.577 0-52.728 15.657-101.844 42.555-142.967 12.612 22.857 28.71 43.516 47.58 61.266zM519.123 532.673c-43.701 0-79.677-32.99-84.416-75.43 1.555-0.506 3.115-1.001 4.682-1.478 4.166 40.145 38.092 71.438 79.336 71.438 40.571 0 74.040-30.292 79.087-69.49 1.819 0.603 3.627 1.231 5.429 1.873-5.78 41.299-41.226 73.088-84.118 73.088z" />
<glyph unicode="&#xe92e;" glyph-name="bird-claw" data-tags="bird-claw" d="M840.186 575.479c-7.502 11.19-18.21 21.21-32.616 29.171-29.128 16.098-57.344 14.976-80.56 3.734l0.012 0.11c-62.945-30.521-124.251-45.021-186.004-55.984-15.971 6.054-21.101 18.019-10.116 38.777 37.766 36.283 82.057 65.578 126.826 80.707 36.418 4.781 65.269 34.101 76.347 68.595 46.773 10.342 102.607 6.161 137.248-31.472-22.571 135.711-100.885 150.712-171.496 133.716-2.362 1.565-4.809 3.085-7.409 4.522-61.176 33.809-118.33-8.314-133.543-60.72-11.79-30.742-25.944-59.763-42.372-87.017-69.904-62.476-136.145-37.967-187.28 31.143-39.445 56.626-74.169 130.599-93.984 200.22h-200.986v-138.77c112.845-52.897 278.687-249.208 243.050-306.801-39.822-19.404-83.206-35.745-132.385-51.84-5.493-1.186-10.805-2.913-15.891-5.137-0.374-0.119-0.737-0.239-1.111-0.357l0.107-0.105c-42.838-19.369-69.477-73.033-55.117-118.199-38.688-76.047-35.187-176.161 116.634-202.413-43.923 41.622-53.694 96.211-38.337 140.512 46.534-5.758 84.895 28.786 97.479 70.31 16.584 42.198 42.472 80.139 83.5 93.035 44.324 13.935 178.624-39.553 245.454-151.326 6.199-19.329 19.915-37.085 43.103-49.899 22.762-12.579 44.692-14.879 64.089-10.197 37.495-40.644 69.057-102.306 54.16-160.359 107.963 97.080 73.362 184.395 17.836 244.98 4.544 33.313-7.891 68.304-45.669 89.185-18.674 10.322-36.968 13.539-53.818 11.576-31.243-0.214-67.337 5.558-99.893 17.229-44.421 31.582-41.505 61.769-4.925 81.385 54.685 5.239 108.79-12.116 151.55-34.24 3.981-3.019 8.327-5.867 13.090-8.498 51.856-28.662 99.418-4.084 122.437 35.275 43.332-10.474 82.647-49.939 108.061-97.636 44.528 136.767-28.208 189.316-107.473 196.785z" />
<glyph unicode="&#xe92f;" glyph-name="bird-mask" data-tags="bird-mask" d="M472.406 465.567c5.147-26.584 3.299-166.72 3.299-166.72s-52.231 120.084-57.377 146.664 2.788 52.613 17.722 58.151c14.934 5.539 31.211-11.525 36.358-38.090l-0.002-0.005zM544.477 462.819c-5.147-26.589-3.299-166.72-3.299-166.72s52.231 120.080 57.377 146.664-2.788 52.613-17.722 58.151c-14.934 5.539-31.211-11.525-36.358-38.090l0.002-0.005zM539.879 581.765c-9.834 2.486-20.072 3.842-30.61 3.844-12.851 0.002-25.261-1.991-37.019-5.638-17.002-37.071-47.787-66.5-85.799-81.731-6.841-17.281-10.634-36.296-10.634-56.27 0-79.347 133.457-467.682 133.457-467.682s133.457 388.348 133.454 467.682h0.005c0 19.040-3.475 37.198-9.725 53.826-41.63 14.593-75.37 45.945-93.129 85.969zM504.929 913.958c-198.090 0-358.676-117.715-358.676-262.929s160.584-262.929 358.676-262.929 358.676 117.72 358.676 262.929c-0.002 145.214-160.586 262.929-358.676 262.929zM327.13 486.842c-88.134 0-159.579 71.448-159.579 159.58s71.444 159.58 159.579 159.58 159.579-71.443 159.579-159.58c-0.002-88.132-71.446-159.58-159.579-159.58zM685.804 486.842c-88.134 0-159.579 71.448-159.579 159.58s71.444 159.58 159.579 159.58 159.579-71.443 159.579-159.58c-0.002-88.132-71.446-159.58-159.579-159.58zM335.033 763.776c-62.806 0-113.726-50.923-113.726-113.729s50.918-113.726 113.726-113.726c62.806 0 113.726 50.918 113.726 113.726-0.002 62.81-50.919 113.729-113.726 113.729zM352.984 626.685c-20.742 0-37.557 16.815-37.557 37.557s16.815 37.559 37.557 37.559 37.557-16.815 37.557-37.559c0.002-20.742-16.815-37.557-37.557-37.557zM694.459 763.776c-62.806 0-113.726-50.923-113.726-113.729s50.918-113.726 113.726-113.726c62.806 0 113.726 50.918 113.726 113.726-0.002 62.81-50.919 113.729-113.726 113.729zM710.307 626.685c-20.742 0-37.557 16.815-37.557 37.557s16.815 37.559 37.557 37.559 37.557-16.815 37.557-37.559c0-20.742-16.815-37.557-37.557-37.557z" />
<glyph unicode="&#xe930;" glyph-name="blade-bite" data-tags="blade-bite" d="M627.969 63.602l-46.698 103.603-41.613-119.646-41.611 118.353-49.466-102.31-31.156 109.79c-37.858-47.575-35.97-90.84-36.47-142.724 111.761-43.092 215.658-39.749 320.285 0 5.31 56.348-5.818 101.864-39.346 141.421l-33.924-108.487zM418.479 354.433l37.287 106.008 41.279-115.328 42.61 106.209 42.612-107.548 42.612 116.668 37.287-107.348c35.219 63.919 41.623 150.85 21.307 214.768l137.156 0.002-75.905 314.263c-136.712 52.74-274.908 46.873-410.138 0l-75.901-314.263h138.487c-29.972-73.548-9.938-156.525 21.307-213.43zM724.65 739.8l23.911-110.346-160.638 14.381c30.067 52.156 79.66 78.915 136.727 95.965zM539.922 579.76l49.641-65.549h-99.283l49.641 65.549zM331.447 629.453l23.911 110.346c59.967-12.804 109.222-39.873 136.727-95.965l-160.638-14.381zM837.47 331.366c-171.631-33.408-368.999-33.289-559.309-14.386 7.378-0.733 14.77-1.428 22.167-2.103l6.171 52.206c4.617-1.901 9.699-2.868 15.018-2.584 19.132 1.019 33.814 17.358 32.795 36.49s-17.353 33.809-36.486 32.79-33.814-17.358-32.795-36.481c0.399-7.489 3.167-14.274 7.509-19.725-11.753-26.98-20.724-56.388-26.422-86.317-44.717 38.999-99.295 47.842-160.17 37.425 0.003 0 0.005 0.002 0.008 0.002-4.736 13.521-17.575 23.231-32.713 23.231-19.159 0-34.689-15.534-34.689-34.684 0-19.159 15.53-34.692 34.689-34.692 9.079 0 17.316 3.516 23.499 9.224-0.008 0.005-0.017 0.012-0.025 0.017 51.195-35.621 106.25-45.313 164.346-34.611-4.098-38.979-2.377-77.563 6.151-111.566-6.672-6.712-10.616-16.085-10.075-26.275 1.019-19.132 17.355-33.817 36.486-32.798 19.132 1.021 33.814 17.36 32.795 36.491s-17.353 33.809-36.486 32.788c-2.993-0.16-5.862-0.733-8.595-1.595l8.207 69.43c207.94-31.081 560.384-58.047 705.422 93.339l-157.497 14.384zM95.763 326.767c-0.13-0.027-0.261-0.053-0.389-0.080 0.129 0.027 0.259 0.053 0.389 0.080zM85.119 324.437c-0.007-0.002-0.012-0.003-0.018-0.005 0.007 0.002 0.013 0.003 0.018 0.005zM74.884 321.883c-0.261-0.068-0.523-0.139-0.783-0.207 0.262 0.068 0.523 0.139 0.783 0.207zM70.851 312.314c1.874-1.679 3.755-3.324 5.641-4.928-1.886 1.604-3.765 3.249-5.641 4.928zM63.809 318.811c1.914-1.826 3.837-3.597 5.763-5.341-1.926 1.744-3.849 3.515-5.763 5.341zM90.787 296.047c1.822-1.348 3.65-2.671 5.484-3.954-1.834 1.281-3.662 2.606-5.484 3.954zM77.515 306.531c1.692-1.423 3.388-2.816 5.088-4.18-1.701 1.363-3.396 2.756-5.088 4.18zM83.732 301.443c1.878-1.488 3.762-2.937 5.65-4.353-1.889 1.417-3.772 2.865-5.65 4.353zM306.375 405.795c0.341 0.621 0.68 1.246 1.024 1.864-0.344-0.616-0.682-1.243-1.024-1.864zM302.184 397.919c-0.135-0.262-0.271-0.521-0.406-0.783 0.135 0.262 0.272 0.521 0.406 0.783zM278.152 316.98v-37.215c0 0 0 0 0 0v37.215zM269.673 258.907c-0.037-0.008-0.074-0.017-0.11-0.025 0.037 0.008 0.074 0.018 0.11 0.025zM276.832 116.087c-0.982 2.372-1.916 4.781-2.81 7.223 0.897-2.439 1.829-4.851 2.81-7.223v0zM278.152 225.366v35.529c0 0 0 0 0 0v-35.529c2.36-0.364 4.764-0.727 7.166-1.089-2.409 0.362-4.804 0.725-7.166 1.089zM284.712 262.599c2.243 0.613 4.489 1.243 6.74 1.913-2.252-0.67-4.499-1.305-6.74-1.913zM281.356 276.351c0.147-0.16 0.294-0.322 0.441-0.483-0.147 0.16-0.294 0.321-0.441 0.483zM284.49 272.854c0.231-0.262 0.461-0.525 0.69-0.788-0.229 0.264-0.459 0.526-0.69 0.788zM287.645 269.171c0.246-0.294 0.493-0.583 0.738-0.879-0.246 0.297-0.493 0.585-0.738 0.879z" />
<glyph unicode="&#xe931;" glyph-name="blast" data-tags="blast" d="M511.992 928.008c-143.987 0-240.013-96.201-240.013-192.176 0-96.828 48.565-133.271 103.128-225.004-6.952-94.946-7.504-223.674-7.504-398.431 31.172 103.931 56.27 183.893 76.875 242.824 28.913-89.55 53.961-211.125 67.489-387.187 13.553 176.063 38.576 297.638 67.489 387.187 20.605-58.93 45.704-138.893 76.875-242.824 0 175.837-0.427 305.217-7.504 400.314 54.262 90.755 103.128 126.77 103.128 223.122 0.050 95.975-95.95 192.176-239.962 192.176v0zM511.992 832.385c79.536 0 144.364-53.735 144.364-119.994 0-26.202-11.043-50.573-28.135-70.325-20.179 67.413-54.789 93.741-116.254 93.741s-96.050-26.328-116.254-93.741c-17.092 19.727-28.135 44.122-28.135 70.325 0.050 66.259 64.904 119.994 144.414 119.994z" />
</font>
</defs>
</svg>
